<?xml version="1.0" standalone="no"?>
<!DOCTYPE svg PUBLIC "-//W3C//DTD SVG 1.1//EN" "http://www.w3.org/Graphics/SVG/1.1/DTD/svg11.dtd" >
<svg xmlns="http://www.w3.org/2000/svg" xmlns:xlink="http://www.w3.org/1999/xlink" version="1.1">
<metadata>
Created by FontForge 20161003 at Tue Feb 19 08:24:46 2019
 By www-data
Copyright (c) 2014 ParaType, Inc., ParaType Ltd. All rights reserved.
</metadata>
<defs>
<font id="StemLight" horiz-adv-x="600" >
  <font-face 
    font-family="StemLight"
    font-weight="350"
    font-stretch="normal"
    units-per-em="1000"
    panose-1="2 11 5 3 2 2 3 2 2 4"
    ascent="778"
    descent="-222"
    x-height="520"
    cap-height="700"
    bbox="-515 -251 1231 919"
    underline-thickness="50"
    underline-position="-150"
    unicode-range="U+0020-FEFF"
  />
<missing-glyph horiz-adv-x="300" 
 />
    <glyph glyph-name="uniF350.var.accented" unicode="&#xf350;`" horiz-adv-x="580" 
d="M2 0l261 561h54l261 -561h-71l-69 146h-300l-68 -146h-68zM288 468l-124 -263h249zM416 765l-119 -147l-42 29l111 155z" />
    <glyph glyph-name="uniF355.var.accented" unicode="&#xf355;`" horiz-adv-x="543" 
d="M65 0v560h426v-63h-359v-181h336v-63h-336v-190h368v-63h-435zM403 765l-119 -147l-42 29l111 155z" />
    <glyph glyph-name="uniF358.var.accented" unicode="&#xf358;`" horiz-adv-x="628" 
d="M122 0h-57v560h67v-447l373 447h58v-560h-67v447zM425 765l-119 -147l-42 29l111 155z" />
    <glyph glyph-name="uniF35E.var.accented" unicode="&#xf35e;`" horiz-adv-x="666" 
d="M32 280q0 121 87 204t215 83q127 0 213.5 -81.5t86.5 -205.5q0 -123 -87 -205t-213 -82q-127 0 -214.5 81.5t-87.5 205.5zM102 280q0 -96 67.5 -159.5t164.5 -63.5q98 0 164 63.5t66 159.5q0 97 -67 160t-163 63q-97 0 -164.5 -63t-67.5 -160zM455 765l-119 -147l-42 29
l111 155z" />
    <glyph glyph-name="uniF363.var.accented" unicode="&#xf363;`" horiz-adv-x="578" 
d="M161 12l27 57q12 -7 27 -7q36 0 66 59l9 17l-290 422h80l245 -354l184 354h68l-223 -433q-34 -65 -65.5 -96t-71.5 -31q-36 0 -56 12zM417 765l-119 -147l-42 29l111 155z" />
    <glyph glyph-name="uniF36B.var.accented" unicode="&#xf36b;`" horiz-adv-x="720" 
d="M588 0v560h67v-560h-67zM268 286h-136v-223h134q172 0 172 117q0 106 -170 106zM132 560v-211h138q118 0 178 -44.5t60 -124.5q0 -88 -64.5 -134t-181.5 -46h-197v560h67zM455 765l-119 -147l-42 29l111 155z" />
    <glyph glyph-name="uniF36D.var.accented" unicode="&#xf36d;`" horiz-adv-x="590" 
d="M169 254v63h319q-10 87 -71.5 137.5t-162.5 50.5q-53 0 -107 -23.5t-87 -63.5l-46 42q41 51 108 79t137 28q138 0 218.5 -77t80.5 -208q0 -128 -82 -208.5t-224 -80.5q-70 0 -134.5 25.5t-104.5 79.5l47 39q30 -38 84.5 -60t111.5 -22q99 0 161.5 55.5t70.5 143.5h-319z
M377 765l-119 -147l-42 29l111 155z" />
    <glyph glyph-name="uniF36E.var.accented" unicode="&#xf36e;`" horiz-adv-x="841" 
d="M65 0v560h67v-244h105q13 109 91.5 180t193.5 71q127 0 207 -80.5t80 -206.5q0 -124 -81.5 -205.5t-205.5 -81.5q-120 0 -197.5 72.5t-88.5 189.5h-104v-255h-67zM305 280q0 -97 61.5 -160.5t155.5 -63.5q98 0 157.5 63t59.5 161t-61 161t-156 63t-156 -63t-61 -161z
M525 765l-119 -147l-42 29l111 155z" />
    <glyph glyph-name="uniF36F.var.accented" unicode="&#xf36f;`" horiz-adv-x="576" 
d="M444 0v210h-169l-186 -210h-83l197 220q-74 14 -116 56.5t-42 103.5q0 80 59 130t174 50h233v-560h-67zM254 272h190v226h-174q-79 0 -117 -32t-38 -85q0 -43 37 -73.5t102 -35.5zM423 765l-119 -147l-42 29l111 155z" />
    <glyph glyph-name="uniF371.var.accented" unicode="&#xf371;`" horiz-adv-x="543" 
d="M123 696q0 17 12.5 28.5t28.5 11.5t29 -11.5t13 -28.5q0 -19 -13 -30.5t-29 -11.5q-17 0 -29 11.5t-12 30.5zM377 696q0 17 13 28.5t31 11.5q15 0 28.5 -12t13.5 -28q0 -19 -13 -30.5t-29 -11.5q-18 0 -31 11.5t-13 30.5zM379 770l-112 -149l-37 21l96 157zM65 0v560h426
v-63h-359v-181h336v-63h-336v-190h368v-63h-435z" />
    <glyph glyph-name="afii10017.var.accented" unicode="&#x410;`" horiz-adv-x="678" 
d="M3 0l307 702h58l307 -702h-74l-85 192h-359l-82 -192h-72zM337 608l-151 -352h304zM501 853l-188 -91l-23 42l183 107z" />
    <glyph glyph-name="afii10022.var.accented" unicode="&#x415;`" horiz-adv-x="638" 
d="M77 0v700h499v-66h-428v-245h400v-66h-400v-257h438v-66h-509zM481 853l-188 -91l-23 42l183 107z" />
    <glyph glyph-name="afii10026.var.accented" unicode="&#x418;`" horiz-adv-x="738" 
d="M138 0h-61v700h71v-580l451 580h62v-700h-71v580zM513 853l-188 -91l-23 42l183 107z" />
    <glyph glyph-name="afii10032.var.accented" unicode="&#x41e;`" horiz-adv-x="783" 
d="M38 350q0 152 102.5 255.5t251.5 103.5t251 -102t102 -257q0 -154 -102 -256.5t-251 -102.5t-251.5 102t-102.5 257zM111 350q0 -125 82.5 -209t198.5 -84q120 0 200 83.5t80 209.5t-82 209.5t-198 83.5q-117 0 -199 -83.5t-82 -209.5zM529 853l-188 -91l-23 42l183 107z
" />
    <glyph glyph-name="afii10037.var.accented" unicode="&#x423;`" horiz-adv-x="674" 
d="M195 16l30 58q12 -6 25 -6q43 0 93 102l-343 530h83l297 -460l222 460h72l-265 -542q-38 -81 -75.5 -119.5t-87.5 -38.5q-31 0 -51 16zM488 853l-188 -91l-23 42l183 107z" />
    <glyph glyph-name="afii10045.var.accented" unicode="&#x42b;`" horiz-adv-x="843" 
d="M695 0v700h71v-700h-71zM314 365h-166v-299h164q209 0 209 157q0 70 -53 106t-154 36zM148 700v-269h169q138 0 208.5 -54.5t70.5 -153.5q0 -109 -75.5 -166t-212.5 -57h-231v700h71zM565 853l-188 -91l-23 42l183 107z" />
    <glyph glyph-name="afii10047.var.accented" unicode="&#x42d;`" horiz-adv-x="692" 
d="M199 324v66h382q-11 117 -86 185.5t-198 68.5q-62 0 -126.5 -31.5t-104.5 -82.5l-48 45q47 63 125.5 98.5t159.5 35.5q162 0 256.5 -96t94.5 -260q0 -160 -96 -261t-263 -101q-81 0 -156 32t-121 97l49 40q36 -47 101 -75.5t132 -28.5q120 0 196.5 74.5t85.5 193.5h-383z
M451 853l-188 -91l-23 42l183 107z" />
    <glyph glyph-name="afii10048.var.accented" unicode="&#x42e;`" horiz-adv-x="987" 
d="M77 0v700h71v-311h131q15 138 107 229t227 91q148 0 242 -101t94 -258q0 -155 -95 -257t-241 -102q-141 0 -232.5 93.5t-102.5 240.5h-130v-325h-71zM350 350q0 -126 75 -209.5t188 -83.5q118 0 190.5 82.5t72.5 210.5t-74 210.5t-189 82.5q-114 0 -188.5 -83t-74.5 -210
zM728 853l-188 -91l-23 42l183 107z" />
    <glyph glyph-name="afii10049.var.accented" unicode="&#x42f;`" horiz-adv-x="676" 
d="M528 0v268h-209l-224 -268h-87l234 278q-87 15 -137.5 70t-50.5 137q0 94 69 154.5t202 60.5h274v-700h-71zM296 334h232v301h-212q-96 0 -141.5 -42t-45.5 -111q0 -60 44 -100.5t123 -47.5zM520 853l-188 -91l-23 42l183 107z" />
    <glyph glyph-name="afii10023.var.accented" unicode="&#x401;`" horiz-adv-x="638" 
d="M132 807q0 17 13 28t33 11q16 0 29 -11t13 -28q0 -18 -13 -29t-29 -11q-21 0 -33.5 11t-12.5 29zM442 807q0 17 13 28t32 11q17 0 30 -11t13 -28q0 -18 -13 -29t-30 -11q-19 0 -32 11t-13 29zM417 889l-110 -146l-39 20l94 156zM77 0v700h499v-66h-428v-245h400v-66h-400
v-257h438v-66h-509z" />
    <glyph glyph-name="afii10065.var.accented" unicode="&#x430;`" horiz-adv-x="533" 
d="M96 410l-35 50q36 33 91.5 53t109.5 20q105 0 159.5 -54.5t54.5 -155.5v-323h-65v86q-63 -93 -196 -93q-84 0 -136 42.5t-52 112.5q0 158 253 158q77 0 131 -16q0 88 -34 134.5t-123 46.5q-80 0 -158 -61zM233 53q66 0 113 37t65 79v62q-53 16 -122 16
q-95 0 -144.5 -21.5t-49.5 -73.5q0 -46 38.5 -72.5t99.5 -26.5zM388 762l-118 -148l-42 30l110 155z" />
    <glyph glyph-name="afii10070.var.accented" unicode="&#x435;`" horiz-adv-x="570" 
d="M473 138l44 -39q-70 -109 -207 -109q-124 0 -200 74t-76 197q0 119 69.5 195.5t193.5 76.5q104 0 171.5 -65t67.5 -171q0 -20 -4 -56h-429q1 -88 59.5 -138.5t150.5 -50.5q48 0 92 24.5t68 61.5zM292 472q-81 0 -131 -47.5t-59 -123.5h364q-2 80 -48.5 125.5t-125.5 45.5
zM421 762l-118 -148l-42 30l110 155z" />
    <glyph glyph-name="afii10074.var.accented" unicode="&#x438;`" horiz-adv-x="603" 
d="M129 0h-63v520h65v-424l343 424h63v-520h-65v423zM427 762l-118 -148l-42 30l110 155z" />
    <glyph glyph-name="afii10080.var.accented" unicode="&#x43e;`" horiz-adv-x="616" 
d="M34 261q0 119 76 195.5t198 76.5q121 0 197.5 -76.5t76.5 -195.5q0 -118 -76.5 -194.5t-197.5 -76.5t-197.5 76.5t-76.5 194.5zM103 261q0 -92 57.5 -150.5t147.5 -58.5t147.5 58t57.5 151q0 92 -58.5 151t-146.5 59q-89 0 -147 -58.5t-58 -151.5zM432 762l-118 -148
l-42 30l110 155z" />
    <glyph glyph-name="afii10085.var.accented" unicode="&#x443;`" horiz-adv-x="535" 
d="M92 -203l18 63q18 -6 25 -6q34 0 59.5 26t54.5 97l14 34l-266 509h78l222 -427l169 427h72l-210 -518q-51 -126 -92.5 -169t-99.5 -43q-24 0 -44 7zM406 762l-118 -148l-42 30l110 155z" />
    <glyph glyph-name="afii10093.var.accented" unicode="&#x44b;`" horiz-adv-x="686" 
d="M66 0v520h65v-170h127q209 0 209 -174q0 -77 -51.5 -126.5t-166.5 -49.5h-183zM248 288h-117v-226h116q151 0 151 113t-150 113zM556 0v520h65v-520h-65zM439 762l-118 -148l-42 30l110 155z" />
    <glyph glyph-name="afii10095.var.accented" unicode="&#x44d;`" horiz-adv-x="540" 
d="M166 236v60h269q-10 85 -62 130t-134 45q-119 0 -178 -88l-51 35q37 53 96 84t130 31q125 0 197.5 -73.5t72.5 -198.5q0 -119 -71.5 -195t-194.5 -76q-158 0 -228 104l49 38q57 -80 175 -80q86 0 141 52t60 132h-271zM369 762l-118 -148l-42 30l110 155z" />
    <glyph glyph-name="afii10096.var.accented" unicode="&#x44e;`" horiz-adv-x="815" 
d="M66 0v520h65v-220h120q13 104 85.5 168.5t178.5 64.5q117 0 191 -76.5t74 -195.5q0 -118 -74 -194.5t-191 -76.5q-110 0 -183 68t-83 176h-118v-234h-65zM318 261q0 -91 56.5 -148t141.5 -57t140 56.5t55 148.5q0 91 -54.5 148.5t-140.5 57.5q-84 0 -141 -58t-57 -148z
M522 762l-118 -148l-42 30l110 155z" />
    <glyph glyph-name="afii10097.var.accented" unicode="&#x44f;`" horiz-adv-x="537" 
d="M265 520h206v-520h-65v193h-145l-169 -193h-82l177 202q-62 8 -102 51t-40 103q0 73 52.5 118.5t167.5 45.5zM114 355q0 -44 38 -72t102 -28h152v203h-151q-72 0 -106.5 -28t-34.5 -75zM434 762l-118 -148l-42 30l110 155z" />
    <glyph glyph-name="afii10071.var.accented" unicode="&#x451;`" horiz-adv-x="570" 
d="M125 689q0 17 12 28.5t28 11.5q17 0 30 -11.5t13 -28.5q0 -19 -13 -30.5t-30 -11.5q-16 0 -28 11.5t-12 30.5zM379 689q0 17 13 28.5t31 11.5q15 0 28 -11.5t13 -28.5q0 -18 -13 -30t-28 -12q-18 0 -31 11.5t-13 30.5zM381 763l-113 -149l-36 22l96 156zM473 138l44 -39
q-70 -109 -207 -109q-124 0 -200 74t-76 197q0 119 69.5 195.5t193.5 76.5q104 0 171.5 -65t67.5 -171q0 -20 -4 -56h-429q1 -88 59.5 -138.5t150.5 -50.5q48 0 92 24.5t68 61.5zM292 472q-81 0 -131 -47.5t-59 -123.5h364q-2 80 -48.5 125.5t-125.5 45.5z" />
    <glyph glyph-name="fi" unicode="fi" horiz-adv-x="562" 
d="M1 458v62h104v28q0 100 49.5 145t118.5 45q49 0 72 -18l-27 -55q-14 11 -42 11q-106 0 -106 -137v-19h167v-62h-167v-458h-65v458h-104zM410 0v520h65v-520h-65zM399 686q0 18 13.5 30t31.5 12q17 0 30 -12t13 -30q0 -19 -13 -32t-30 -13q-19 0 -32 13t-13 32z" />
    <glyph glyph-name="fl" unicode="fl" horiz-adv-x="497" 
d="M357 0v638q-28 38 -81 38q-106 0 -106 -137v-19h117v-62h-117v-458h-65v458h-104v62h104v28q0 100 49.5 145t118.5 45q55 0 96 -31l53 24v-731h-65z" />
    <glyph glyph-name=".notdef" horiz-adv-x="300" 
 />
    <glyph glyph-name=".null" horiz-adv-x="0" 
 />
    <glyph glyph-name="nonmarkingreturn" horiz-adv-x="333" 
 />
    <glyph glyph-name="space" unicode=" " horiz-adv-x="300" 
 />
    <glyph glyph-name="exclam" unicode="!" horiz-adv-x="310" 
d="M121 192v508h68v-508h-68zM100 51q0 19 15.5 34t39.5 15q21 0 36.5 -15t15.5 -34q0 -22 -15 -38t-37 -16q-24 0 -39.5 16t-15.5 38z" />
    <glyph glyph-name="quotedbl" unicode="&#x22;" horiz-adv-x="410" 
d="M93 483v217h67v-217h-67zM250 483v217h67v-217h-67z" />
    <glyph glyph-name="numbersign" unicode="#" horiz-adv-x="691" 
d="M313 8l72 196h-190l-80 -215l-55 19l73 196h-93v58h115q12 32 34 91t32 85h-181v58h202q15 38 42 111.5t38 103.5l55 -19l-73 -196h191l79 215l55 -18l-74 -197h97v-58h-118q-12 -32 -34 -91t-32 -85h184v-58h-205l-79 -215zM283 438l-66 -176h191l64 176h-189z" />
    <glyph glyph-name="dollar" unicode="$" 
d="M491 183q0 45 -33 74t-82.5 41.5t-107 28.5t-107 33.5t-82.5 58.5t-33 102q0 73 62 126.5t165 60.5v80h66v-81q144 -11 211 -94l-45 -45q-79 75 -204 75q-29 0 -59 -6.5t-58.5 -19.5t-46.5 -37t-18 -56q0 -39 24.5 -65.5t64 -41t87 -26t94.5 -25.5t86.5 -33.5t64 -56
t24.5 -87.5q0 -82 -63 -136t-162 -61v-90h-66v92q-78 8 -143 44t-98 85l48 49q35 -47 98 -81t143 -34q69 0 119.5 34.5t50.5 91.5z" />
    <glyph glyph-name="percent" unicode="%" horiz-adv-x="862" 
d="M47 537q0 73 50.5 119.5t126.5 46.5t126 -46.5t50 -119.5q0 -72 -50 -119t-126 -47t-126.5 47t-50.5 119zM111 537q0 -49 34 -80t79 -31q47 0 79.5 31t32.5 80t-33 80t-79 31t-79.5 -31t-33.5 -80zM149 17l518 701l48 -35l-517 -695zM462 162q0 73 50.5 119.5t126.5 46.5
q75 0 125.5 -46.5t50.5 -119.5q0 -72 -50.5 -119t-125.5 -47q-76 0 -126.5 47t-50.5 119zM526 162q0 -49 34 -80t79 -31q46 0 79 31t33 80t-33 80t-79 31t-79.5 -31t-33.5 -80z" />
    <glyph glyph-name="ampersand" unicode="&#x26;" horiz-adv-x="783" 
d="M760 0h-96q-14 10 -28.5 22.5t-24.5 22t-26.5 25.5t-24.5 23q-35 -46 -98.5 -74t-130.5 -28q-114 0 -187 56t-73 143q0 21 6 42t13.5 36.5t24.5 34.5t27.5 29.5t34 28t33 24t36.5 24t33 21.5q-69 88 -69 159q0 54 38 87t97 33q65 0 101 -33t36 -90q0 -84 -119 -168
q50 -81 196 -234q32 53 52.5 127.5t20.5 146.5h66q0 -84 -25.5 -170.5t-69.5 -148.5q60 -66 157 -139zM334 54q50 0 100.5 22t78.5 59q-94 102 -203 246q-9 -6 -39 -26.5t-41 -28.5t-33 -27t-30.5 -32.5t-16.5 -33t-8 -40.5q0 -59 53 -99t139 -40zM277 580q0 -14 2.5 -25.5
t10 -26.5t10.5 -20t16.5 -24t14.5 -21q86 64 86 119q0 31 -18.5 51t-52.5 20q-30 0 -49.5 -19t-19.5 -54z" />
    <glyph glyph-name="quotesingle" unicode="'" horiz-adv-x="253" 
d="M93 483v217h67v-217h-67z" />
    <glyph glyph-name="parenleft" unicode="(" horiz-adv-x="299" 
d="M289 -168l-44 -37q-74 64 -122 147.5t-66.5 160t-18.5 154.5q0 121 49 242t159 220l42 -37q-184 -173 -184 -425q0 -116 49.5 -228.5t135.5 -196.5z" />
    <glyph glyph-name="parenright" unicode=")" horiz-adv-x="298" 
d="M54 -205l-44 37q90 79 137 195t47 230q0 252 -184 425l43 37q109 -99 158 -220t49 -242q0 -123 -49 -246t-157 -216z" />
    <glyph glyph-name="asterisk" unicode="*" horiz-adv-x="501" 
d="M287 700l-6 -145l135 50l21 -65l-139 -39l90 -114l-57 -42l-80 120l-81 -121l-57 42l91 116l-139 39l21 65l137 -50l-6 144h70z" />
    <glyph glyph-name="plus" unicode="+" horiz-adv-x="591" 
d="M70 331v58h194v196h61v-196h197v-58h-197v-198h-61v198h-194z" />
    <glyph glyph-name="comma" unicode="," horiz-adv-x="198" 
d="M113 7q-29 -11 -45.5 3.5t-16.5 41.5q0 22 15 35.5t34 13.5q63 0 63 -86q0 -67 -30 -108t-76 -53l-17 36q34 10 57.5 42.5t15.5 74.5z" />
    <glyph glyph-name="hyphen" unicode="-" horiz-adv-x="404" 
d="M82 243v61h240v-61h-240z" />
    <glyph glyph-name="period" unicode="." horiz-adv-x="211" 
d="M52 52q0 19 15.5 34t39.5 15q21 0 36.5 -15t15.5 -34q0 -22 -15 -38t-37 -16q-24 0 -39.5 16t-15.5 38z" />
    <glyph glyph-name="slash" unicode="/" horiz-adv-x="326" 
d="M-32 -186l334 897l55 -19l-333 -899z" />
    <glyph glyph-name="zero" unicode="0" horiz-adv-x="681" 
d="M47 350q0 160 77 259t216 99q140 0 217 -99t77 -259t-76.5 -259t-215.5 -99t-217 99t-78 259zM117 350q0 -136 60 -215t165 -79q108 0 165 78.5t57 215.5t-58.5 215.5t-165.5 78.5q-106 0 -164.5 -79.5t-58.5 -214.5z" />
    <glyph glyph-name="one" unicode="1" horiz-adv-x="395" 
d="M4 589l243 116h44v-705h-66v623l-196 -92z" />
    <glyph glyph-name="two" unicode="2" horiz-adv-x="589" 
d="M94 524l-59 26q26 71 96 114.5t158 43.5q114 0 178.5 -60t64.5 -151q0 -103 -68.5 -186.5t-202.5 -171.5l-117 -76h407v-63h-521v53l175 124q92 65 142 109t82.5 96t32.5 108q0 66 -46.5 109t-129.5 43q-66 0 -117.5 -34t-74.5 -84z" />
    <glyph glyph-name="three" unicode="3" horiz-adv-x="604" 
d="M99 528l-57 31q32 67 106.5 108.5t169.5 41.5t159.5 -48.5t64.5 -127.5q0 -122 -115 -164q59 -10 100.5 -52.5t41.5 -111.5q0 -105 -72.5 -159.5t-193.5 -54.5q-94 0 -173.5 45.5t-109.5 120.5l61 26q34 -58 92.5 -91.5t132.5 -33.5q85 0 139 36.5t54 100.5
q0 131 -193 131h-95v65h77q72 0 128 38t56 93q0 57 -47 89t-113 32q-143 0 -213 -115z" />
    <glyph glyph-name="four" unicode="4" horiz-adv-x="657" 
d="M448 0v150h-433v45l437 505h63v-486h127v-64h-127v-150h-67zM109 214h339v381z" />
    <glyph glyph-name="five" unicode="5" horiz-adv-x="597" 
d="M67 344l41 356h446v-65h-388l-27 -223q68 32 167 32q117 0 185.5 -62.5t68.5 -162.5q0 -103 -73.5 -165.5t-190.5 -62.5q-88 0 -162 38t-108 109l60 30q23 -47 80.5 -79t130.5 -32q86 0 139.5 45t53.5 114q0 77 -55 122t-142 45q-92 0 -172 -47z" />
    <glyph glyph-name="six" unicode="6" horiz-adv-x="662" 
d="M50 331q0 183 85.5 278.5t233.5 99.5q65 1 119.5 -20t86.5 -55l-39 -48q-60 57 -172 57q-107 0 -177.5 -76.5t-68.5 -228.5q31 60 97.5 93t142.5 33q126 0 195 -57.5t69 -168.5q0 -118 -81.5 -182.5t-189.5 -64.5q-142 0 -221.5 88t-79.5 252zM129 262q0 -82 58 -143.5
t163 -61.5q80 0 141 47.5t61 131.5q0 166 -210 166q-70 0 -136 -47t-77 -93z" />
    <glyph glyph-name="seven" unicode="7" horiz-adv-x="556" 
d="M22 635v65h511v-45l-342 -655h-74l334 635h-429z" />
    <glyph glyph-name="eight" unicode="8" horiz-adv-x="667" 
d="M319 392h31q61 0 114.5 36.5t53.5 89.5q0 59 -52 92.5t-134 33.5q-79 0 -131 -34t-52 -92q0 -54 49.5 -90t120.5 -36zM348 328h-26q-83 0 -140 -39t-57 -96q0 -65 58 -101.5t150 -36.5q96 0 152.5 37t56.5 101q0 63 -54 99t-140 36zM334 -9q-127 0 -203 52t-76 142
q0 65 38 111t107 66q-61 16 -91.5 60.5t-30.5 100.5q0 85 68.5 135.5t186.5 50.5q122 0 189 -50.5t67 -135.5q0 -113 -124 -160q70 -7 108.5 -56t38.5 -118q0 -94 -74.5 -146t-203.5 -52z" />
    <glyph glyph-name="nine" unicode="9" horiz-adv-x="622" 
d="M596 369q0 -186 -84 -282t-209 -96q-147 0 -215 73l39 48q63 -55 179 -55q93 0 159 77t62 224q-31 -58 -96.5 -90t-139.5 -32q-121 0 -188.5 64.5t-67.5 171.5q0 103 81 170t191 67q139 0 214 -88t75 -252zM517 435q0 81 -56 144.5t-152 63.5q-90 0 -147 -47t-57 -122
q0 -86 51 -131t148 -45q70 0 136 46t77 91z" />
    <glyph glyph-name="colon" unicode=":" horiz-adv-x="316" 
d="M103 471q0 19 15.5 34t39.5 15q21 0 36.5 -15t15.5 -34q0 -22 -15 -38t-37 -16q-24 0 -39.5 16t-15.5 38zM102 54q0 19 15.5 34t39.5 15q21 0 36.5 -15t15.5 -34q0 -22 -15 -38t-37 -16q-24 0 -39.5 16t-15.5 38z" />
    <glyph glyph-name="semicolon" unicode=";" horiz-adv-x="319" 
d="M170 7q-29 -11 -45.5 3.5t-16.5 41.5q0 22 15 35.5t34 13.5q63 0 63 -86q0 -67 -30 -108t-76 -53l-17 36q34 10 57.5 42.5t15.5 74.5zM103 471q0 19 15.5 34t39.5 15q21 0 36.5 -15t15.5 -34q0 -22 -15 -38t-37 -16q-24 0 -39.5 16t-15.5 38z" />
    <glyph glyph-name="less" unicode="&#x3c;" horiz-adv-x="580" 
d="M482 81l-426 267v27l426 266v-72l-335 -207l335 -210v-71z" />
    <glyph glyph-name="equal" unicode="=" horiz-adv-x="586" 
d="M70 418v58h447v-58h-447zM70 243v58h447v-58h-447z" />
    <glyph glyph-name="greater" unicode="&#x3e;" horiz-adv-x="580" 
d="M524 348l-426 -267v71l336 210l-336 207v72l426 -266v-27z" />
    <glyph glyph-name="question" unicode="?" horiz-adv-x="575" 
d="M465 524q0 54 -42 86.5t-127 32.5q-80 0 -125.5 -31t-74.5 -81l-56 24q27 67 93.5 110.5t166.5 43.5q116 0 175.5 -48.5t59.5 -123.5q0 -46 -18.5 -84t-46 -61.5t-60 -45t-60 -36.5t-46 -35.5t-18.5 -42.5q0 -21 4 -42h-62q-4 17 -4 56q0 31 24.5 58.5t60 48.5t71 43.5
t60.5 55.5t25 72zM203 51q0 19 15.5 34t39.5 15q21 0 36.5 -15t15.5 -34q0 -22 -15 -38t-37 -16q-24 0 -39.5 16t-15.5 38z" />
    <glyph glyph-name="at" unicode="@" horiz-adv-x="1004" 
d="M638 0v46q-52 -55 -145 -55q-101 0 -163 64.5t-62 171.5q0 100 72.5 168.5t180.5 68.5q106 0 183 -52v-351q83 2 127 59.5t44 149.5q0 145 -102 238t-262 93q-164 0 -273 -106t-109 -267q0 -159 108.5 -266t273.5 -107q62 0 114 13l6 -60q-62 -15 -120 -15
q-194 0 -319 125t-125 310t125.5 309.5t318.5 124.5q187 0 306.5 -108.5t119.5 -281.5q0 -110 -62.5 -191t-177.5 -81h-59zM503 51q39 0 77 21t58 47v254q-56 31 -118 31q-78 0 -130.5 -52t-52.5 -128q0 -79 45.5 -126t120.5 -47z" />
    <glyph glyph-name="A" unicode="A" horiz-adv-x="678" 
d="M3 0l307 702h58l307 -702h-74l-85 192h-359l-82 -192h-72zM337 608l-151 -352h304z" />
    <glyph glyph-name="B" unicode="B" horiz-adv-x="671" 
d="M77 0v700h273q136 0 192 -45.5t56 -126.5q0 -59 -28 -102t-80 -62q62 -9 98 -53t36 -114q0 -197 -277 -197h-270zM360 325h-212v-259h203q103 0 152 32.5t49 102.5q0 124 -192 124zM349 634h-201v-244h215q74 0 119 33t45 91q0 61 -40.5 90.5t-137.5 29.5z" />
    <glyph glyph-name="C" unicode="C" horiz-adv-x="686" 
d="M624 154l40 -46q-38 -52 -110 -84.5t-154 -32.5q-166 0 -264 97.5t-98 261.5q0 154 96.5 256.5t255.5 102.5q88 0 157 -32t106 -79l-43 -45q-47 45 -97.5 67t-124.5 22q-128 0 -202.5 -81t-74.5 -211q0 -132 80.5 -212t211.5 -80q136 0 221 96z" />
    <glyph glyph-name="D" unicode="D" horiz-adv-x="710" 
d="M77 0v700h214q101 0 176.5 -27t119 -75t64.5 -107.5t21 -130.5q0 -159 -99 -259.5t-291 -100.5h-205zM289 634h-141v-568h138q158 0 235.5 80.5t77.5 213.5q0 125 -74.5 199.5t-235.5 74.5z" />
    <glyph glyph-name="E" unicode="E" horiz-adv-x="638" 
d="M77 0v700h499v-66h-428v-245h400v-66h-400v-257h438v-66h-509z" />
    <glyph glyph-name="F" unicode="F" horiz-adv-x="608" 
d="M77 0v700h494v-66h-423v-268h394v-66h-394v-300h-71z" />
    <glyph glyph-name="G" unicode="G" horiz-adv-x="707" 
d="M403 281v66h266v-254q-44 -47 -118 -74.5t-149 -27.5q-159 0 -261.5 98.5t-102.5 260.5q0 151 103 255t253 104q169 0 258 -101l-42 -47q-75 82 -210 82q-128 0 -208.5 -82t-80.5 -211q0 -133 82 -213t211 -80q117 0 198 68v156h-199z" />
    <glyph glyph-name="H" unicode="H" horiz-adv-x="746" 
d="M598 0v323h-450v-323h-71v700h71v-311h450v311h71v-700h-71z" />
    <glyph glyph-name="I" unicode="I" horiz-adv-x="245" 
d="M87 0v700h71v-700h-71z" />
    <glyph glyph-name="J" unicode="J" horiz-adv-x="485" 
d="M409 700v-492q0 -104 -56.5 -160.5t-150.5 -56.5q-75 0 -127 37t-77 88l54 40q22 -42 60.5 -71t85.5 -29q68 2 104 39.5t36 124.5v480h71z" />
    <glyph glyph-name="K" unicode="K" horiz-adv-x="650" 
d="M77 0v700h71v-358l381 358h93l-339 -319l365 -381h-97l-319 334l-84 -77v-257h-71z" />
    <glyph glyph-name="L" unicode="L" horiz-adv-x="584" 
d="M77 0v700h71v-634h426v-66h-497z" />
    <glyph glyph-name="M" unicode="M" horiz-adv-x="833" 
d="M77 0v700h68l278 -370l267 370h65v-700h-71v581l-257 -351h-16l-263 351v-581h-71z" />
    <glyph glyph-name="N" unicode="N" horiz-adv-x="736" 
d="M658 0h-56l-457 572v-572h-68v700h56l457 -574v574h68v-700z" />
    <glyph glyph-name="O" unicode="O" horiz-adv-x="783" 
d="M38 350q0 152 102.5 255.5t251.5 103.5t251 -102t102 -257q0 -154 -102 -256.5t-251 -102.5t-251.5 102t-102.5 257zM111 350q0 -125 82.5 -209t198.5 -84q120 0 200 83.5t80 209.5t-82 209.5t-198 83.5q-117 0 -199 -83.5t-82 -209.5z" />
    <glyph glyph-name="P" unicode="P" horiz-adv-x="651" 
d="M148 0h-71v700h252q284 0 284 -214q0 -93 -68.5 -154.5t-216.5 -61.5h-180v-270zM334 635h-186v-300h178q108 0 161 40.5t53 111.5q0 148 -206 148z" />
    <glyph glyph-name="Q" unicode="Q" horiz-adv-x="783" 
d="M38 350q0 152 102.5 255.5t251.5 103.5t251 -102t102 -257q0 -153 -116 -269l73 -87l-47 -40l-76 90q-84 -53 -187 -53q-150 0 -252 101.5t-102 257.5zM111 350q0 -125 82 -209t199 -84q75 0 145 41l-63 76l45 41l66 -80q87 85 87 215q0 126 -81.5 209.5t-198.5 83.5
q-118 0 -199.5 -83.5t-81.5 -209.5z" />
    <glyph glyph-name="R" unicode="R" horiz-adv-x="675" 
d="M148 0h-71v700h264q266 0 266 -204q0 -76 -50.5 -129.5t-131.5 -67.5l233 -299h-86l-220 286h-204v-286zM338 634h-190v-282h196q86 0 138 39.5t52 104.5q0 138 -196 138z" />
    <glyph glyph-name="S" unicode="S" horiz-adv-x="614" 
d="M496 183q0 45 -33 74t-82.5 41.5t-107 28.5t-107 33.5t-82.5 58.5t-33 102q0 79 70.5 133.5t184.5 54.5q172 0 249 -96l-45 -45q-79 75 -204 75q-29 0 -59 -6.5t-58.5 -19.5t-46.5 -37t-18 -56q0 -39 24.5 -65.5t64 -41t86.5 -26t94.5 -25.5t87 -33.5t64 -56t24.5 -87.5
q0 -87 -71 -142.5t-179 -55.5q-90 0 -167 38t-115 94l48 49q35 -47 98 -81t143 -34q69 0 119.5 34.5t50.5 91.5z" />
    <glyph glyph-name="T" unicode="T" horiz-adv-x="577" 
d="M3 634v66h571v-66h-250v-634h-71v634h-250z" />
    <glyph glyph-name="U" unicode="U" horiz-adv-x="719" 
d="M651 700v-406q0 -78 -24 -137.5t-65 -94.5t-89.5 -52.5t-103.5 -17.5q-128 0 -214.5 81t-86.5 228v399h71v-388q0 -122 66 -188t164 -66q103 0 157 66t54 183v393h71z" />
    <glyph glyph-name="V" unicode="V" horiz-adv-x="709" 
d="M711 700l-322 -700h-53l-338 700h75l292 -603l273 603h73z" />
    <glyph glyph-name="W" unicode="W" horiz-adv-x="962" 
d="M959 700l-208 -700h-63l-203 583l-200 -583h-64l-218 700h75l179 -578l198 578h61l202 -578l171 578h70z" />
    <glyph glyph-name="X" unicode="X" horiz-adv-x="645" 
d="M619 700l-253 -344l262 -356h-84l-222 300l-221 -300h-84l262 356l-251 344h83l212 -288l212 288h84z" />
    <glyph glyph-name="Y" unicode="Y" horiz-adv-x="627" 
d="M629 700l-281 -394v-306h-71v306l-279 394h85l231 -328l235 328h80z" />
    <glyph glyph-name="Z" unicode="Z" horiz-adv-x="629" 
d="M33 634v66h566v-48l-486 -586h496v-66h-595v48l484 586h-465z" />
    <glyph glyph-name="bracketleft" unicode="[" horiz-adv-x="308" 
d="M60 -196v906h241v-63h-173v-780h173v-63h-241z" />
    <glyph glyph-name="backslash" unicode="\" horiz-adv-x="326" 
d="M23 711l334 -897l-55 -21l-334 899z" />
    <glyph glyph-name="bracketright" unicode="]" horiz-adv-x="308" 
d="M248 710v-906h-241v63h173v780h-173v63h241z" />
    <glyph glyph-name="asciicircum" unicode="^" horiz-adv-x="488" 
d="M42 440l182 268h42l180 -268h-74l-127 194l-129 -194h-74z" />
    <glyph glyph-name="underscore" unicode="_" horiz-adv-x="297" 
d="M0 -196v63h297v-63h-297z" />
    <glyph glyph-name="grave" unicode="`" horiz-adv-x="372" 
d="M333 615l-121 145l50 39l110 -154z" />
    <glyph glyph-name="a" unicode="a" horiz-adv-x="533" 
d="M96 410l-35 50q36 33 91.5 53t109.5 20q105 0 159.5 -54.5t54.5 -155.5v-323h-65v86q-63 -93 -196 -93q-84 0 -136 42.5t-52 112.5q0 158 253 158q77 0 131 -16q0 88 -34 134.5t-123 46.5q-80 0 -158 -61zM233 53q66 0 113 37t65 79v62q-53 16 -122 16
q-95 0 -144.5 -21.5t-49.5 -73.5q0 -46 38.5 -72.5t99.5 -26.5z" />
    <glyph glyph-name="b" unicode="b" horiz-adv-x="593" 
d="M66 92v638h65v-284q68 87 186 87q111 0 176.5 -73t65.5 -190q0 -130 -72 -205t-195 -75q-68 0 -130.5 29.5t-95.5 72.5zM309 471q-58 0 -105 -32.5t-73 -81.5v-235q29 -33 75.5 -51.5t93.5 -18.5q84 0 137 57t53 155q0 95 -50.5 151t-130.5 56z" />
    <glyph glyph-name="c" unicode="c" horiz-adv-x="528" 
d="M473 135l45 -36q-27 -51 -86 -80t-121 -29q-124 0 -200.5 74t-76.5 197q0 117 75.5 194.5t197.5 77.5q63 0 119 -27t83 -72l-51 -36q-55 73 -151 73q-88 0 -146 -59.5t-58 -150.5q0 -95 59 -152t154 -57q99 0 157 83z" />
    <glyph glyph-name="d" unicode="d" horiz-adv-x="596" 
d="M465 0v69q-17 -29 -62.5 -53.5t-108.5 -24.5q-117 0 -188.5 72.5t-71.5 195.5q0 120 77 197t190 77q107 0 164 -59v256h65v-730h-65zM300 53q61 0 103.5 35.5t61.5 76.5v223q-54 83 -162 83q-82 0 -141 -58.5t-59 -151.5q0 -95 55 -151.5t142 -56.5z" />
    <glyph glyph-name="e" unicode="e" horiz-adv-x="570" 
d="M473 138l44 -39q-70 -109 -207 -109q-124 0 -200 74t-76 197q0 119 69.5 195.5t193.5 76.5q104 0 171.5 -65t67.5 -171q0 -20 -4 -56h-429q1 -88 59.5 -138.5t150.5 -50.5q48 0 92 24.5t68 61.5zM292 472q-81 0 -131 -47.5t-59 -123.5h364q-2 80 -48.5 125.5t-125.5 45.5
z" />
    <glyph glyph-name="f" unicode="f" horiz-adv-x="336" 
d="M1 458v62h104v28q0 100 49.5 145t118.5 45q40 0 73.5 -17t51.5 -44l-41 -39q-28 38 -81 38q-106 0 -106 -137v-19h170v-62h-170v-458h-65v458h-104z" />
    <glyph glyph-name="g" unicode="g" horiz-adv-x="595" 
d="M530 520v-482q0 -126 -64.5 -186.5t-172.5 -60.5q-77 0 -138 33.5t-81 87.5l58 27q18 -36 60 -61t105 -25q81 0 124.5 46.5t43.5 128.5v37q-29 -37 -66.5 -56t-103.5 -19q-118 0 -189.5 73t-71.5 198q0 123 74.5 197t188.5 74q58 0 103 -19.5t65 -45.5v53h65zM305 52
q59 0 101.5 32.5t58.5 78.5v221q-21 38 -63 62t-98 24q-85 0 -142.5 -56t-57.5 -155q0 -95 55 -151t146 -56z" />
    <glyph glyph-name="h" unicode="h" horiz-adv-x="591" 
d="M66 0v730h65v-283q63 85 183 85q219 0 219 -236v-296h-65v288q0 182 -168 182q-60 0 -103.5 -34.5t-65.5 -88.5v-347h-65z" />
    <glyph glyph-name="i" unicode="i" horiz-adv-x="220" 
d="M77 0v520h65v-520h-65zM66 686q0 18 13.5 30t31.5 12q17 0 30 -12t13 -30q0 -19 -13 -32t-30 -13q-19 0 -32 13t-13 32z" />
    <glyph glyph-name="j" unicode="j" horiz-adv-x="222" 
d="M146 520v-525q0 -204 -155 -204q-46 0 -82 19t-53 51l52 34q24 -28 42 -35q16 -7 39 -7q45 0 68.5 38t23.5 107v522h65zM69 686q0 18 12.5 30t31.5 12q18 0 30.5 -12t12.5 -30q0 -19 -12.5 -32t-30.5 -13q-19 0 -31.5 13t-12.5 32z" />
    <glyph glyph-name="k" unicode="k" horiz-adv-x="521" 
d="M66 0v730h65v-459l280 249h89l-259 -232l279 -288h-87l-244 246l-58 -47v-199h-65z" />
    <glyph glyph-name="l" unicode="l" horiz-adv-x="197" 
d="M66 0v730h65v-730h-65z" />
    <glyph glyph-name="m" unicode="m" horiz-adv-x="882" 
d="M823 344v-344h-65v324q0 146 -120 146q-111 0 -161 -106v-364h-65v351q0 53 -32.5 86t-89.5 33q-56 0 -98 -36.5t-61 -80.5v-353h-65v520h65v-72q62 84 169 84q57 0 99 -23.5t61 -66.5q63 90 180 90q84 0 133.5 -44.5t49.5 -143.5z" />
    <glyph glyph-name="n" unicode="n" horiz-adv-x="591" 
d="M66 0v520h65v-72q63 84 189 84q214 0 214 -235v-297h-65v287q0 183 -169 183q-52 0 -99 -32.5t-70 -83.5v-354h-65z" />
    <glyph glyph-name="o" unicode="o" horiz-adv-x="616" 
d="M34 261q0 119 76 195.5t198 76.5q121 0 197.5 -76.5t76.5 -195.5q0 -118 -76.5 -194.5t-197.5 -76.5t-197.5 76.5t-76.5 194.5zM103 261q0 -92 57.5 -150.5t147.5 -58.5t147.5 58t57.5 151q0 92 -58.5 151t-146.5 59q-89 0 -147 -58.5t-58 -151.5z" />
    <glyph glyph-name="p" unicode="p" horiz-adv-x="597" 
d="M66 -200v720h65v-77q57 90 185 90q113 0 179.5 -73t66.5 -190q0 -121 -72.5 -200.5t-186.5 -79.5q-111 0 -172 62v-252h-65zM310 471q-65 0 -113 -37t-66 -87v-202q51 -93 170 -93q83 0 137.5 60t54.5 153t-49.5 149.5t-133.5 56.5z" />
    <glyph glyph-name="q" unicode="q" horiz-adv-x="596" 
d="M465 -200v258q-61 -68 -170 -68q-118 0 -189.5 74t-71.5 197q0 115 79.5 193t194.5 78q113 0 157 -53v41h65v-720h-65zM300 52q59 0 102 28t63 73v244q-46 73 -157 73q-85 0 -145 -61t-60 -150q0 -93 55.5 -150t141.5 -57z" />
    <glyph glyph-name="r" unicode="r" horiz-adv-x="349" 
d="M66 0v520h65v-50q14 31 47 46.5t69 15.5q68 0 106 -48l-44 -43q-24 29 -69 29q-39 0 -69.5 -29t-39.5 -73v-368h-65z" />
    <glyph glyph-name="s" unicode="s" horiz-adv-x="497" 
d="M395 138q0 32 -35.5 53.5t-86.5 35t-102.5 29.5t-87 49t-35.5 82q0 67 54 106.5t146 39.5q61 0 117.5 -25t83.5 -64l-47 -42q-21 29 -66 49t-93 20q-126 0 -126 -79q0 -26 25.5 -45.5t64.5 -30t83.5 -25.5t83.5 -31t64.5 -47t25.5 -74q0 -73 -58 -111t-147 -38
q-76 0 -139.5 33t-90.5 89l52 38q24 -45 74.5 -71.5t107.5 -26.5q51 0 91.5 21t40.5 65z" />
    <glyph glyph-name="t" unicode="t" horiz-adv-x="394" 
d="M1 458v62h104v117h65v-117h186v-62h-186v-249q0 -85 24 -119.5t79 -34.5q51 0 86 44l40 -39q-21 -29 -58 -48t-80 -19q-156 0 -156 201v264h-104z" />
    <glyph glyph-name="u" unicode="u" horiz-adv-x="583" 
d="M518 523v-523h-65v87q-29 -45 -76.5 -71t-106.5 -26q-107 0 -160 56.5t-53 173.5v303h65v-290q0 -181 153 -181q58 0 105.5 34.5t72.5 94.5v342h65z" />
    <glyph glyph-name="v" unicode="v" horiz-adv-x="507" 
d="M516 520l-234 -520h-46l-245 520h76l194 -418l186 418h69z" />
    <glyph glyph-name="w" unicode="w" horiz-adv-x="766" 
d="M769 520l-170 -520h-53l-160 424l-161 -424h-51l-177 520h71l137 -414l155 414h53l159 -417l129 417h68z" />
    <glyph glyph-name="x" unicode="x" horiz-adv-x="522" 
d="M504 520l-198 -250l209 -270h-82l-173 225l-177 -225h-76l208 268l-197 252h81l164 -207l162 207h79z" />
    <glyph glyph-name="y" unicode="y" horiz-adv-x="535" 
d="M92 -203l18 63q18 -6 25 -6q34 0 59.5 26t54.5 97l14 34l-266 509h78l222 -427l169 427h72l-210 -518q-51 -126 -92.5 -169t-99.5 -43q-24 0 -44 7z" />
    <glyph glyph-name="z" unicode="z" horiz-adv-x="490" 
d="M37 458v62h433v-42l-351 -416h345v-62h-444v43l350 415h-333z" />
    <glyph glyph-name="braceleft" unicode="{" horiz-adv-x="320" 
d="M106 -65v198q0 43 -22.5 69t-65.5 26v58q88 0 88 102v186q0 68 30.5 102t100.5 34h64v-60h-51q-78 0 -78 -94v-187q0 -45 -19 -74.5t-51 -36.5q70 -12 70 -112v-190q0 -52 19 -72t64 -20h46v-60h-67q-128 0 -128 131z" />
    <glyph glyph-name="bar" unicode="|" horiz-adv-x="319" 
d="M126 0v700h67v-700h-67z" />
    <glyph glyph-name="braceright" unicode="}" horiz-adv-x="320" 
d="M213 133v-198q0 -131 -127 -131h-68v60h47q44 0 63 20t19 72v190q0 100 71 112q-33 7 -52 36.5t-19 74.5v187q0 94 -77 94h-52v60h65q70 0 100 -34t30 -102v-186q0 -56 25.5 -79t62.5 -23v-58q-43 0 -65.5 -26t-22.5 -69z" />
    <glyph glyph-name="asciitilde" unicode="~" horiz-adv-x="583" 
d="M83 313l-33 43q81 81 163 66q29 -6 93 -37.5t103 -31.5q51 0 96 50l29 -46q-61 -61 -124 -61q-43 0 -114 35.5t-110 35.5q-52 0 -103 -54z" />
    <glyph glyph-name="uni00A0" unicode="&#xa0;" horiz-adv-x="300" 
 />
    <glyph glyph-name="exclamdown" unicode="&#xa1;" horiz-adv-x="310" 
d="M121 -182v508h68v-508h-68zM100 467q0 22 15.5 38t39.5 16q22 0 37 -16t15 -38q0 -19 -15.5 -34t-36.5 -15q-24 0 -39.5 15t-15.5 34z" />
    <glyph glyph-name="cent" unicode="&#xa2;" horiz-adv-x="528" 
d="M473 135l45 -36q-25 -47 -78 -75.5t-112 -32.5v-191h-67v194q-104 14 -165.5 85.5t-61.5 181.5q0 105 62 179t165 89v171h67v-168q58 -5 107.5 -31t73.5 -67l-51 -36q-53 68 -134 72v-418q93 3 149 83zM104 261q0 -81 43.5 -135.5t116.5 -68.5v410q-72 -14 -116 -70.5
t-44 -135.5z" />
    <glyph glyph-name="sterling" unicode="&#xa3;" horiz-adv-x="590" 
d="M77 278v55h73q-5 12 -16 37t-17.5 41t-12 43t-5.5 56q0 80 58.5 139t153.5 59q124 0 193 -77l-37 -52q-63 64 -157 64q-56 0 -97.5 -38.5t-41.5 -97.5q0 -29 8 -56.5t23.5 -63t21.5 -54.5h172v-55h-160q2 -11 2 -34q0 -87 -38 -136q36 0 106 -24.5t108 -24.5
q34 0 56 11.5t52 40.5l32 -51q-62 -63 -141 -63q-39 0 -112.5 25t-114.5 25q-61 0 -117 -55l-30 51q37 39 83 55q48 62 48 140q0 18 -5 40h-88z" />
    <glyph glyph-name="currency" unicode="&#xa4;" horiz-adv-x="599" 
d="M72 347q0 79 45 141l-89 90l42 42l90 -89q59 46 140 46q79 0 140 -46l95 93l42 -41l-95 -96q46 -60 46 -140q0 -79 -45 -140l90 -91l-41 -42l-91 91q-60 -48 -141 -48q-83 0 -142 48l-95 -96l-41 42l95 96q-45 61 -45 140zM135 347q0 -71 45.5 -120.5t119.5 -49.5
q75 0 119.5 49.5t44.5 120.5q0 73 -45 122t-119 49t-119.5 -49.5t-45.5 -121.5z" />
    <glyph glyph-name="yen" unicode="&#xa5;" horiz-adv-x="627" 
d="M90 304v58h147l-239 338h85l231 -328l235 328h80l-242 -338h149v-58h-189v-117h189v-58h-189v-129h-70v129h-187v58h187v117h-187z" />
    <glyph glyph-name="brokenbar" unicode="&#xa6;" horiz-adv-x="319" 
d="M193 431h-67v269h67v-269zM126 269h67v-269h-67v269z" />
    <glyph glyph-name="section" unicode="&#xa7;" horiz-adv-x="520" 
d="M65 251q0 63 34.5 110t85.5 62q-30 17 -51 49.5t-21 79.5q0 66 44.5 107t114.5 41q91 0 142 -67l-46 -42q-13 14 -22.5 22t-29 16t-43.5 8q-39 0 -65.5 -26t-26.5 -64q0 -72 94 -111q80 -5 130 -57t50 -128q0 -62 -35.5 -109t-88.5 -63q32 -17 53 -50t21 -72
q0 -68 -42 -110.5t-117 -42.5q-93 0 -141 63l44 49q40 -49 97 -49q38 0 65 26t27 65q0 71 -95 109q-84 5 -131 56t-47 128zM131 251q0 -54 37.5 -90.5t91.5 -36.5q55 0 92 36.5t37 90.5t-37.5 91t-91.5 37t-91.5 -37t-37.5 -91z" />
    <glyph glyph-name="dieresis" unicode="&#xa8;" horiz-adv-x="464" 
d="M142 689q0 17 12 28.5t28 11.5q17 0 30 -11.5t13 -28.5q0 -19 -13 -30.5t-30 -11.5q-16 0 -28 11.5t-12 30.5zM379 689q0 18 12.5 29t30.5 11q16 0 29 -11.5t13 -28.5q0 -19 -13 -30.5t-29 -11.5q-18 0 -30.5 11.5t-12.5 30.5z" />
    <glyph glyph-name="copyright" unicode="&#xa9;" horiz-adv-x="1005" 
d="M71 224q0 180 124 305t307 125q185 0 308.5 -124t123.5 -306t-124 -306.5t-308 -124.5t-307.5 124t-123.5 307zM131 224q0 -156 106.5 -264.5t264.5 -108.5q160 0 266 108t106 265t-105.5 264.5t-266.5 107.5q-158 0 -264.5 -108.5t-106.5 -263.5zM654 114l34 -44
q-28 -37 -75.5 -58t-99.5 -21q-107 0 -174.5 65t-67.5 172q0 100 65.5 168t163.5 68q116 0 179 -63l-36 -47q-55 50 -131 50q-28 0 -52 -7q-55 -17 -87 -63.5t-32 -105.5q0 -28 7 -53q14 -58 60.5 -91t108.5 -33q83 0 137 63z" />
    <glyph glyph-name="ordfeminine" unicode="&#xaa;" horiz-adv-x="441" 
d="M97 537l-25 47q62 43 146 43q76 0 115 -33.5t39 -95.5v-198h-57v48q-43 -54 -132 -54q-60 0 -97 26.5t-37 69.5q0 51 44.5 77.5t125.5 26.5q62 0 96 -9q0 47 -24 67.5t-80 20.5q-57 0 -114 -36zM199 348q42 0 73 20.5t43 44.5v23q-54 12 -103 12q-46 0 -74 -14t-28 -39
q0 -22 23.5 -34.5t65.5 -12.5z" />
    <glyph glyph-name="guillemotleft" unicode="&#xab;" horiz-adv-x="516" 
d="M229 38l-181 212v5l182 209l44 -39l-150 -173l149 -173zM410 38l-180 212v5l182 209l44 -39l-150 -173l149 -173z" />
    <glyph glyph-name="logicalnot" unicode="&#xac;" horiz-adv-x="577" 
d="M58 331v58h461v-186h-56v128h-405z" />
    <glyph glyph-name="uni00AD" unicode="&#xad;" horiz-adv-x="404" 
d="M82 243v61h240v-61h-240z" />
    <glyph glyph-name="registered" unicode="&#xae;" horiz-adv-x="578" 
d="M50 494q0 98 70 167t170 69q98 0 168 -69.5t70 -166.5q0 -100 -70 -169.5t-168 -69.5q-100 0 -170 69.5t-70 169.5zM92 493q0 -82 57.5 -139t139.5 -57q81 0 139 58t58 138q0 81 -58 138.5t-139 57.5t-139 -57.5t-58 -138.5zM241 355h-47v283h89q109 0 109 -86
q0 -29 -17 -50.5t-45 -30.5l82 -116h-56l-72 104h-43v-104zM341 547q0 29 -15 40.5t-45 11.5h-40v-100h44q21 0 38.5 13t17.5 35z" />
    <glyph glyph-name="macron" unicode="&#xaf;" horiz-adv-x="446" 
d="M185 647v59h261v-59h-261z" />
    <glyph glyph-name="degree" unicode="&#xb0;" horiz-adv-x="400" 
d="M50 564q0 63 43.5 106.5t106.5 43.5t106.5 -42.5t43.5 -105.5q0 -62 -44 -105.5t-106 -43.5t-106 43t-44 104zM110 565q0 -37 26.5 -63t63.5 -26t63.5 26t26.5 63t-26.5 63t-63.5 26t-63.5 -26t-26.5 -63z" />
    <glyph glyph-name="plusminus" unicode="&#xb1;" horiz-adv-x="579" 
d="M67 407v58h192v196h59v-196h195v-58h-195v-132h-59v132h-192zM67 165v58h446v-58h-446z" />
    <glyph glyph-name="twosuperior" unicode="&#xb2;" horiz-adv-x="415" 
d="M88 596l-46 25q18 46 63.5 75t101.5 29q69 0 109 -31.5t40 -88.5q0 -108 -149 -205l-70 -45h240v-55h-336v50l104 69q71 48 110.5 90t39.5 87q0 37 -23.5 56t-65.5 19q-77 0 -118 -75z" />
    <glyph glyph-name="threesuperior" unicode="&#xb3;" horiz-adv-x="424" 
d="M95 612l-45 30q51 83 171 83q68 0 107 -28t39 -77q0 -74 -69 -98q82 -20 82 -104q0 -58 -48.5 -90.5t-118.5 -32.5q-54 0 -104 25t-72 68l47 32q15 -32 52 -51.5t77 -19.5q49 0 77 18.5t28 51.5q0 69 -102 69h-59v52h47q46 0 74 19t28 52q0 60 -87 60q-81 0 -124 -59z
" />
    <glyph glyph-name="acute" unicode="&#xb4;" horiz-adv-x="437" 
d="M421 762l-118 -148l-42 30l110 155z" />
    <glyph glyph-name="mu" unicode="&#xb5;" horiz-adv-x="592" 
d="M526 520v-520h-66v70q-31 -36 -82 -58t-110 -22q-85 0 -136 52v-242h-66v720h66v-287q0 -92 37 -136.5t119 -44.5q50 0 98 26.5t74 61.5v380h66z" />
    <glyph glyph-name="mu" unicode="&#x3bc;" horiz-adv-x="592" 
d="M526 520v-520h-66v70q-31 -36 -82 -58t-110 -22q-85 0 -136 52v-242h-66v720h66v-287q0 -92 37 -136.5t119 -44.5q50 0 98 26.5t74 61.5v380h66z" />
    <glyph glyph-name="paragraph" unicode="&#xb6;" horiz-adv-x="438" 
d="M47 478q0 103 57 162.5t154 59.5h147v-60h-92v-611q0 -41 -1.5 -66t-9.5 -60.5t-23 -56t-44.5 -35.5t-71.5 -15q-66 0 -108 40l28 49q35 -26 76 -26q52 0 70 39t18 129v231q-87 3 -143.5 62t-56.5 158z" />
    <glyph glyph-name="periodcentered" unicode="&#xb7;" horiz-adv-x="236" 
d="M70 297q0 16 13.5 29t32.5 13q18 0 31 -13t13 -29q0 -18 -13 -31t-31 -13q-20 0 -33 13t-13 31z" />
    <glyph glyph-name="cedilla" unicode="&#xb8;" horiz-adv-x="418" 
d="M205 -173l20 43q39 -21 75 -21q32 0 43.5 8t11.5 25q0 33 -58 33h-22v85h45v-41q49 -1 73.5 -22.5t24.5 -55.5q0 -36 -29.5 -59.5t-87.5 -23.5q-56 0 -96 29z" />
    <glyph glyph-name="onesuperior" unicode="&#xb9;" horiz-adv-x="293" 
d="M10 653l163 70h44v-423h-60v358l-127 -54z" />
    <glyph glyph-name="ordmasculine" unicode="&#xba;" horiz-adv-x="461" 
d="M57 460q0 74 49 120.5t124 46.5q76 0 125.5 -46.5t49.5 -120.5q0 -73 -49.5 -119.5t-125.5 -46.5q-75 0 -124 46.5t-49 119.5zM118 460q0 -49 33.5 -79.5t78.5 -30.5q48 0 81 30.5t33 79.5t-33.5 80t-80.5 31q-46 0 -79 -31t-33 -80z" />
    <glyph glyph-name="guillemotright" unicode="&#xbb;" horiz-adv-x="516" 
d="M456 250l-180 -212l-45 41l149 173l-150 173l44 39l182 -209v-5zM274 250l-180 -212l-45 41l149 173l-150 173l44 39l182 -209v-5z" />
    <glyph glyph-name="onequarter" unicode="&#xbc;" horiz-adv-x="867" 
d="M95 31l547 675l45 -36l-544 -678zM37 653l163 70h44v-423h-60v358l-127 -54zM683 0v94h-277v42l280 284h56v-272h89v-54h-89v-94h-59zM487 148h196v195z" />
    <glyph glyph-name="onehalf" unicode="&#xbd;" horiz-adv-x="897" 
d="M95 31l547 675l45 -36l-544 -678zM37 653l163 70h44v-423h-60v358l-127 -54zM552 296l-46 25q18 46 63.5 75t101.5 29q69 0 109 -31.5t40 -88.5q0 -108 -149 -205l-70 -45h240v-55h-336v50l104 69q71 48 110.5 90t39.5 87q0 37 -23.5 56t-65.5 19q-77 0 -118 -75z" />
    <glyph glyph-name="threequarters" unicode="&#xbe;" horiz-adv-x="949" 
d="M177 31l547 675l45 -36l-544 -678zM764 0v94h-277v42l280 284h56v-272h89v-54h-89v-94h-59zM568 148h196v195zM95 612l-45 30q51 83 171 83q68 0 107 -28t39 -77q0 -74 -69 -98q82 -20 82 -104q0 -58 -48.5 -90.5t-118.5 -32.5q-54 0 -104 25t-72 68l47 32
q15 -32 52 -51.5t77 -19.5q49 0 77 18.5t28 51.5q0 69 -102 69h-59v52h47q46 0 74 19t28 52q0 60 -87 60q-81 0 -124 -59z" />
    <glyph glyph-name="questiondown" unicode="&#xbf;" horiz-adv-x="575" 
d="M110 -6q0 -54 42 -86.5t127 -32.5q80 0 125.5 31t74.5 81l56 -24q-27 -67 -93.5 -110.5t-166.5 -43.5q-116 0 -175.5 48.5t-59.5 123.5q0 46 18.5 84t46 61.5t60 45t60 36.5t46 35.5t18.5 42.5q0 21 -4 42h62q4 -17 4 -56q0 -31 -24.5 -58.5t-60 -48.5t-71 -43.5
t-60.5 -55.5t-25 -72zM372 467q0 -19 -15.5 -34t-39.5 -15q-21 0 -36.5 15t-15.5 34q0 22 15 38t37 16q24 0 39.5 -16t15.5 -38z" />
    <glyph glyph-name="Agrave" unicode="&#xc0;" horiz-adv-x="678" 
d="M3 0l307 702h58l307 -702h-74l-85 192h-359l-82 -192h-72zM337 608l-151 -352h304zM373 762l-189 91l29 58l182 -107z" />
    <glyph glyph-name="Aacute" unicode="&#xc1;" horiz-adv-x="678" 
d="M3 0l307 702h58l307 -702h-74l-85 192h-359l-82 -192h-72zM337 608l-151 -352h304zM513 853l-188 -91l-23 42l183 107z" />
    <glyph glyph-name="Acircumflex" unicode="&#xc2;" horiz-adv-x="678" 
d="M3 0l307 702h58l307 -702h-74l-85 192h-359l-82 -192h-72zM337 608l-151 -352h304zM336 905l183 -103l-30 -43l-155 83l-153 -83l-23 43l174 103h4z" />
    <glyph glyph-name="Atilde" unicode="&#xc3;" horiz-adv-x="678" 
d="M3 0l307 702h58l307 -702h-74l-85 192h-359l-82 -192h-72zM337 608l-151 -352h304zM183 799l-22 39q21 20 50.5 32.5t50.5 12.5q31 0 82.5 -23t77.5 -23q42 0 73 34l21 -39q-20 -25 -49.5 -38.5t-54.5 -13.5q-28 0 -81 23t-82 23q-33 0 -66 -27z" />
    <glyph glyph-name="Adieresis" unicode="&#xc4;" horiz-adv-x="678" 
d="M3 0l307 702h58l307 -702h-74l-85 192h-359l-82 -192h-72zM337 608l-151 -352h304zM178 824q0 17 13 28t33 11q16 0 29 -11t13 -28q0 -18 -13 -29t-29 -11q-20 0 -33 10.5t-13 29.5zM411 824q0 17 13 28t32 11q17 0 29.5 -11t12.5 -28q0 -19 -12.5 -29.5t-29.5 -10.5
q-20 0 -32.5 10.5t-12.5 29.5z" />
    <glyph glyph-name="Aring" unicode="&#xc5;" horiz-adv-x="678" 
d="M3 0l307 702h58l307 -702h-74l-85 192h-359l-82 -192h-72zM337 608l-151 -352h304zM227 822q0 44 33 69.5t78 25.5q47 0 80 -25t33 -70q0 -43 -31.5 -70t-81.5 -27t-80.5 26t-30.5 71zM279 822q0 -22 16 -36.5t44 -14.5q30 0 45 14t15 37q0 21 -16.5 34.5t-43.5 13.5
q-28 0 -44 -13.5t-16 -34.5z" />
    <glyph glyph-name="AE" unicode="&#xc6;" horiz-adv-x="1102" 
d="M540 0v192h-322l-142 -192h-76l509 700h530v-66h-428v-245h400v-66h-400v-257h438v-66h-509zM262 256h278v379z" />
    <glyph glyph-name="Ccedilla" unicode="&#xc7;" horiz-adv-x="686" 
d="M287 -173l21 43q40 -21 75 -21q33 0 44 8t11 25q0 33 -57 33h-23v78q-149 13 -234.5 108.5t-85.5 248.5q0 154 96.5 256.5t255.5 102.5q88 0 157 -32t106 -79l-43 -45q-47 45 -97.5 67t-124.5 22q-128 0 -202.5 -81t-74.5 -211q0 -132 80.5 -212t211.5 -80q136 0 221 96
l40 -46q-38 -51 -109 -83.5t-151 -33.5v-32q99 -3 99 -78q0 -36 -28.5 -59.5t-86.5 -23.5q-61 0 -101 29z" />
    <glyph glyph-name="Egrave" unicode="&#xc8;" horiz-adv-x="638" 
d="M77 0v700h499v-66h-428v-245h400v-66h-400v-257h438v-66h-509zM363 762l-189 91l29 58l182 -107z" />
    <glyph glyph-name="Eacute" unicode="&#xc9;" horiz-adv-x="638" 
d="M77 0v700h499v-66h-428v-245h400v-66h-400v-257h438v-66h-509zM481 853l-188 -91l-23 42l183 107z" />
    <glyph glyph-name="Ecircumflex" unicode="&#xca;" horiz-adv-x="638" 
d="M77 0v700h499v-66h-428v-245h400v-66h-400v-257h438v-66h-509zM333 905l183 -103l-30 -43l-155 83l-153 -83l-23 43l174 103h4z" />
    <glyph glyph-name="Edieresis" unicode="&#xcb;" horiz-adv-x="638" 
d="M77 0v700h499v-66h-428v-245h400v-66h-400v-257h438v-66h-509zM170 824q0 17 13 28t33 11q16 0 29 -11t13 -28q0 -18 -13 -29t-29 -11q-20 0 -33 10.5t-13 29.5zM403 824q0 17 13 28t32 11q17 0 29.5 -11t12.5 -28q0 -19 -12.5 -29.5t-29.5 -10.5q-20 0 -32.5 10.5
t-12.5 29.5z" />
    <glyph glyph-name="Igrave" unicode="&#xcc;" horiz-adv-x="245" 
d="M87 0v700h71v-700h-71zM144 762l-189 91l29 58l182 -107z" />
    <glyph glyph-name="Iacute" unicode="&#xcd;" horiz-adv-x="245" 
d="M87 0v700h71v-700h-71zM293 853l-188 -91l-23 42l183 107z" />
    <glyph glyph-name="Icircumflex" unicode="&#xce;" horiz-adv-x="245" 
d="M87 0v700h71v-700h-71zM119 905l183 -103l-30 -43l-155 83l-153 -83l-23 43l174 103h4z" />
    <glyph glyph-name="Idieresis" unicode="&#xcf;" horiz-adv-x="245" 
d="M87 0v700h71v-700h-71zM-39 824q0 17 13 28t33 11q16 0 29 -11t13 -28q0 -18 -13 -29t-29 -11q-20 0 -33 10.5t-13 29.5zM194 824q0 17 13 28t32 11q17 0 29.5 -11t12.5 -28q0 -19 -12.5 -29.5t-29.5 -10.5q-20 0 -32.5 10.5t-12.5 29.5z" />
    <glyph glyph-name="Eth" unicode="&#xd0;" horiz-adv-x="765" 
d="M8 317v60h125v323h213q101 0 177 -27t119.5 -75t64 -107.5t20.5 -130.5q0 -159 -99 -259.5t-291 -100.5h-204v317h-125zM344 634h-140v-257h198v-60h-198v-251h137q158 0 235.5 80.5t77.5 213.5q0 125 -74.5 199.5t-235.5 74.5z" />
    <glyph glyph-name="Ntilde" unicode="&#xd1;" horiz-adv-x="736" 
d="M658 0h-56l-457 572v-572h-68v700h56l457 -574v574h68v-700zM212 799l-22 39q21 20 50.5 32.5t50.5 12.5q31 0 82.5 -23t77.5 -23q42 0 73 34l21 -39q-20 -25 -49.5 -38.5t-54.5 -13.5q-28 0 -81 23t-82 23q-33 0 -66 -27z" />
    <glyph glyph-name="Ograve" unicode="&#xd2;" horiz-adv-x="783" 
d="M38 350q0 152 102.5 255.5t251.5 103.5t251 -102t102 -257q0 -154 -102 -256.5t-251 -102.5t-251.5 102t-102.5 257zM111 350q0 -125 82.5 -209t198.5 -84q120 0 200 83.5t80 209.5t-82 209.5t-198 83.5q-117 0 -199 -83.5t-82 -209.5zM428 762l-189 91l29 58l182 -107z
" />
    <glyph glyph-name="Oacute" unicode="&#xd3;" horiz-adv-x="783" 
d="M38 350q0 152 102.5 255.5t251.5 103.5t251 -102t102 -257q0 -154 -102 -256.5t-251 -102.5t-251.5 102t-102.5 257zM111 350q0 -125 82.5 -209t198.5 -84q120 0 200 83.5t80 209.5t-82 209.5t-198 83.5q-117 0 -199 -83.5t-82 -209.5zM550 853l-188 -91l-23 42l183 107z
" />
    <glyph glyph-name="Ocircumflex" unicode="&#xd4;" horiz-adv-x="783" 
d="M38 350q0 152 102.5 255.5t251.5 103.5t251 -102t102 -257q0 -154 -102 -256.5t-251 -102.5t-251.5 102t-102.5 257zM111 350q0 -125 82.5 -209t198.5 -84q120 0 200 83.5t80 209.5t-82 209.5t-198 83.5q-117 0 -199 -83.5t-82 -209.5zM390 905l183 -103l-30 -43l-155 83
l-153 -83l-23 43l174 103h4z" />
    <glyph glyph-name="Otilde" unicode="&#xd5;" horiz-adv-x="783" 
d="M38 350q0 152 102.5 255.5t251.5 103.5t251 -102t102 -257q0 -154 -102 -256.5t-251 -102.5t-251.5 102t-102.5 257zM111 350q0 -125 82.5 -209t198.5 -84q120 0 200 83.5t80 209.5t-82 209.5t-198 83.5q-117 0 -199 -83.5t-82 -209.5zM236 799l-22 39q21 20 50.5 32.5
t50.5 12.5q31 0 82.5 -23t77.5 -23q42 0 73 34l21 -39q-20 -25 -49.5 -38.5t-54.5 -13.5q-28 0 -81 23t-82 23q-33 0 -66 -27z" />
    <glyph glyph-name="Odieresis" unicode="&#xd6;" horiz-adv-x="783" 
d="M38 350q0 152 102.5 255.5t251.5 103.5t251 -102t102 -257q0 -154 -102 -256.5t-251 -102.5t-251.5 102t-102.5 257zM111 350q0 -125 82.5 -209t198.5 -84q120 0 200 83.5t80 209.5t-82 209.5t-198 83.5q-117 0 -199 -83.5t-82 -209.5zM232 824q0 17 13 28t33 11
q16 0 29 -11t13 -28q0 -18 -13 -29t-29 -11q-20 0 -33 10.5t-13 29.5zM465 824q0 17 13 28t32 11q17 0 29.5 -11t12.5 -28q0 -19 -12.5 -29.5t-29.5 -10.5q-20 0 -32.5 10.5t-12.5 29.5z" />
    <glyph glyph-name="multiply" unicode="&#xd7;" horiz-adv-x="591" 
d="M113 497l42 42l138 -138l139 138l42 -42l-138 -138l138 -139l-42 -42l-139 139l-138 -139l-42 42l139 139z" />
    <glyph glyph-name="Oslash" unicode="&#xd8;" horiz-adv-x="783" 
d="M93 29l50 61q-105 103 -105 260q0 152 102.5 255.5t251.5 103.5q113 0 202 -61l46 56l45 -36l-46 -57q106 -103 106 -261q0 -154 -102 -256.5t-251 -102.5q-112 0 -202 60l-49 -61zM672 350q0 121 -78 205l-360 -449q71 -49 158 -49q120 0 200 83.5t80 209.5zM111 350
q0 -121 77 -204l362 447q-72 50 -158 50q-117 0 -199 -83.5t-82 -209.5z" />
    <glyph glyph-name="Ugrave" unicode="&#xd9;" horiz-adv-x="719" 
d="M651 700v-406q0 -78 -24 -137.5t-65 -94.5t-89.5 -52.5t-103.5 -17.5q-128 0 -214.5 81t-86.5 228v399h71v-388q0 -122 66 -188t164 -66q103 0 157 66t54 183v393h71zM399 762l-189 91l29 58l182 -107z" />
    <glyph glyph-name="Uacute" unicode="&#xda;" horiz-adv-x="719" 
d="M651 700v-406q0 -78 -24 -137.5t-65 -94.5t-89.5 -52.5t-103.5 -17.5q-128 0 -214.5 81t-86.5 228v399h71v-388q0 -122 66 -188t164 -66q103 0 157 66t54 183v393h71zM521 853l-188 -91l-23 42l183 107z" />
    <glyph glyph-name="Ucircumflex" unicode="&#xdb;" horiz-adv-x="719" 
d="M651 700v-406q0 -78 -24 -137.5t-65 -94.5t-89.5 -52.5t-103.5 -17.5q-128 0 -214.5 81t-86.5 228v399h71v-388q0 -122 66 -188t164 -66q103 0 157 66t54 183v393h71zM357 905l183 -103l-30 -43l-155 83l-153 -83l-23 43l174 103h4z" />
    <glyph glyph-name="Udieresis" unicode="&#xdc;" horiz-adv-x="719" 
d="M651 700v-406q0 -78 -24 -137.5t-65 -94.5t-89.5 -52.5t-103.5 -17.5q-128 0 -214.5 81t-86.5 228v399h71v-388q0 -122 66 -188t164 -66q103 0 157 66t54 183v393h71zM199 824q0 17 13 28t33 11q16 0 29 -11t13 -28q0 -18 -13 -29t-29 -11q-20 0 -33 10.5t-13 29.5z
M432 824q0 17 13 28t32 11q17 0 29.5 -11t12.5 -28q0 -19 -12.5 -29.5t-29.5 -10.5q-20 0 -32.5 10.5t-12.5 29.5z" />
    <glyph glyph-name="Yacute" unicode="&#xdd;" horiz-adv-x="627" 
d="M629 700l-281 -394v-306h-71v306l-279 394h85l231 -328l235 328h80zM478 853l-188 -91l-23 42l183 107z" />
    <glyph glyph-name="Thorn" unicode="&#xde;" horiz-adv-x="651" 
d="M148 0h-71v700h71v-117h181q284 0 284 -213q0 -93 -68.5 -155t-216.5 -62h-180v-153zM334 518h-186v-299h178q108 -1 161 40t53 112q0 147 -206 147z" />
    <glyph glyph-name="germandbls" unicode="&#xdf;" horiz-adv-x="553" 
d="M272 738q103 0 155.5 -53t52.5 -150q0 -52 -28.5 -97.5t-76.5 -66.5q68 -12 104 -60t36 -117q0 -99 -57 -151t-165 -52q-76 0 -118 22l21 62q42 -20 100 -20q69 0 109.5 36t40.5 103q0 133 -181 133h-51v65h40q71 0 114 43.5t43 102.5q0 64 -36.5 101t-101.5 37
q-66 0 -104 -41t-38 -150v-485h-65v499q0 68 18 117t49 74.5t65 36.5t74 11z" />
    <glyph glyph-name="agrave" unicode="&#xe0;" horiz-adv-x="533" 
d="M96 410l-35 50q36 33 91.5 53t109.5 20q105 0 159.5 -54.5t54.5 -155.5v-323h-65v86q-63 -93 -196 -93q-84 0 -136 42.5t-52 112.5q0 158 253 158q77 0 131 -16q0 88 -34 134.5t-123 46.5q-80 0 -158 -61zM233 53q66 0 113 37t65 79v62q-53 16 -122 16
q-95 0 -144.5 -21.5t-49.5 -73.5q0 -46 38.5 -72.5t99.5 -26.5zM270 615l-121 145l50 39l110 -154z" />
    <glyph glyph-name="aacute" unicode="&#xe1;" horiz-adv-x="533" 
d="M96 410l-35 50q36 33 91.5 53t109.5 20q105 0 159.5 -54.5t54.5 -155.5v-323h-65v86q-63 -93 -196 -93q-84 0 -136 42.5t-52 112.5q0 158 253 158q77 0 131 -16q0 88 -34 134.5t-123 46.5q-80 0 -158 -61zM233 53q66 0 113 37t65 79v62q-53 16 -122 16
q-95 0 -144.5 -21.5t-49.5 -73.5q0 -46 38.5 -72.5t99.5 -26.5zM386 762l-118 -148l-42 30l110 155z" />
    <glyph glyph-name="acircumflex" unicode="&#xe2;" horiz-adv-x="533" 
d="M96 410l-35 50q36 33 91.5 53t109.5 20q105 0 159.5 -54.5t54.5 -155.5v-323h-65v86q-63 -93 -196 -93q-84 0 -136 42.5t-52 112.5q0 158 253 158q77 0 131 -16q0 88 -34 134.5t-123 46.5q-80 0 -158 -61zM233 53q66 0 113 37t65 79v62q-53 16 -122 16
q-95 0 -144.5 -21.5t-49.5 -73.5q0 -46 38.5 -72.5t99.5 -26.5zM268 781l143 -123l-36 -42l-109 97l-114 -94l-29 40l141 122h4z" />
    <glyph glyph-name="atilde" unicode="&#xe3;" horiz-adv-x="533" 
d="M96 410l-35 50q36 33 91.5 53t109.5 20q105 0 159.5 -54.5t54.5 -155.5v-323h-65v86q-63 -93 -196 -93q-84 0 -136 42.5t-52 112.5q0 158 253 158q77 0 131 -16q0 88 -34 134.5t-123 46.5q-80 0 -158 -61zM233 53q66 0 113 37t65 79v62q-53 16 -122 16
q-95 0 -144.5 -21.5t-49.5 -73.5q0 -46 38.5 -72.5t99.5 -26.5zM137 632l-31 32q59 59 107 59q24 0 63 -25t59 -25q35 0 67 35l26 -33q-44 -57 -99 -57q-29 0 -65.5 25t-53.5 25q-30 0 -73 -36z" />
    <glyph glyph-name="adieresis" unicode="&#xe4;" horiz-adv-x="533" 
d="M96 410l-35 50q36 33 91.5 53t109.5 20q105 0 159.5 -54.5t54.5 -155.5v-323h-65v86q-63 -93 -196 -93q-84 0 -136 42.5t-52 112.5q0 158 253 158q77 0 131 -16q0 88 -34 134.5t-123 46.5q-80 0 -158 -61zM233 53q66 0 113 37t65 79v62q-53 16 -122 16
q-95 0 -144.5 -21.5t-49.5 -73.5q0 -46 38.5 -72.5t99.5 -26.5zM98 689q0 17 12 28.5t28 11.5q17 0 30 -11.5t13 -28.5q0 -19 -13 -30.5t-30 -11.5q-16 0 -28 11.5t-12 30.5zM335 689q0 18 12.5 29t30.5 11q16 0 29 -11.5t13 -28.5q0 -19 -13 -30.5t-29 -11.5
q-18 0 -30.5 11.5t-12.5 30.5z" />
    <glyph glyph-name="aring" unicode="&#xe5;" horiz-adv-x="533" 
d="M96 410l-35 50q36 33 91.5 53t109.5 20q105 0 159.5 -54.5t54.5 -155.5v-323h-65v86q-63 -93 -196 -93q-84 0 -136 42.5t-52 112.5q0 158 253 158q77 0 131 -16q0 88 -34 134.5t-123 46.5q-80 0 -158 -61zM233 53q66 0 113 37t65 79v62q-53 16 -122 16
q-95 0 -144.5 -21.5t-49.5 -73.5q0 -46 38.5 -72.5t99.5 -26.5zM166 701q0 41 29 70t71 29t71.5 -29t29.5 -70t-29.5 -69.5t-71.5 -28.5t-71 28.5t-29 69.5zM216 701q0 -21 14 -35.5t36 -14.5q23 0 37 13t14 37t-14 37.5t-37 13.5q-22 0 -36 -14.5t-14 -36.5z" />
    <glyph glyph-name="ae" unicode="&#xe6;" horiz-adv-x="945" 
d="M848 138l44 -39q-70 -109 -206 -109q-81 0 -143 32.5t-96 91.5q-76 -121 -229 -121q-85 0 -138 43.5t-53 111.5q0 158 253 158q77 0 131 -16q0 88 -34 134.5t-123 46.5q-80 0 -158 -61l-35 50q36 33 91.5 53t109.5 20q147 0 194 -106q70 106 217 106q103 0 170.5 -65
t67.5 -171q0 -32 -4 -56h-427q1 -88 59.5 -138.5t149.5 -50.5q48 0 91.5 24.5t67.5 61.5zM667 472q-80 0 -130 -47.5t-59 -123.5h364q-2 80 -48.5 125.5t-126.5 45.5zM233 53q70 0 114.5 36t63.5 80v62q-53 16 -122 16q-95 0 -143.5 -21.5t-48.5 -73.5q0 -46 37.5 -72.5
t98.5 -26.5z" />
    <glyph glyph-name="ccedilla" unicode="&#xe7;" horiz-adv-x="528" 
d="M203 -173l20 43q39 -21 75 -21q32 0 43.5 8t11.5 25q0 33 -58 33h-22v77q-109 11 -174 83.5t-65 185.5q0 117 75.5 194.5t197.5 77.5q63 0 119 -27t83 -72l-51 -36q-55 73 -151 73q-88 0 -146 -59.5t-58 -150.5q0 -95 59 -152t154 -57q99 0 157 83l45 -36
q-27 -49 -83.5 -78t-116.5 -31v-31q49 -1 73.5 -22.5t24.5 -55.5q0 -36 -29.5 -59.5t-87.5 -23.5q-56 0 -96 29z" />
    <glyph glyph-name="egrave" unicode="&#xe8;" horiz-adv-x="570" 
d="M473 138l44 -39q-70 -109 -207 -109q-124 0 -200 74t-76 197q0 119 69.5 195.5t193.5 76.5q104 0 171.5 -65t67.5 -171q0 -20 -4 -56h-429q1 -88 59.5 -138.5t150.5 -50.5q48 0 92 24.5t68 61.5zM292 472q-81 0 -131 -47.5t-59 -123.5h364q-2 80 -48.5 125.5t-125.5 45.5
zM306 615l-121 145l50 39l110 -154z" />
    <glyph glyph-name="eacute" unicode="&#xe9;" horiz-adv-x="570" 
d="M473 138l44 -39q-70 -109 -207 -109q-124 0 -200 74t-76 197q0 119 69.5 195.5t193.5 76.5q104 0 171.5 -65t67.5 -171q0 -20 -4 -56h-429q1 -88 59.5 -138.5t150.5 -50.5q48 0 92 24.5t68 61.5zM292 472q-81 0 -131 -47.5t-59 -123.5h364q-2 80 -48.5 125.5t-125.5 45.5
zM403 762l-118 -148l-42 30l110 155z" />
    <glyph glyph-name="ecircumflex" unicode="&#xea;" horiz-adv-x="570" 
d="M473 138l44 -39q-70 -109 -207 -109q-124 0 -200 74t-76 197q0 119 69.5 195.5t193.5 76.5q104 0 171.5 -65t67.5 -171q0 -20 -4 -56h-429q1 -88 59.5 -138.5t150.5 -50.5q48 0 92 24.5t68 61.5zM292 472q-81 0 -131 -47.5t-59 -123.5h364q-2 80 -48.5 125.5t-125.5 45.5
zM305 781l143 -123l-36 -42l-109 97l-114 -94l-29 40l141 122h4z" />
    <glyph glyph-name="edieresis" unicode="&#xeb;" horiz-adv-x="570" 
d="M473 138l44 -39q-70 -109 -207 -109q-124 0 -200 74t-76 197q0 119 69.5 195.5t193.5 76.5q104 0 171.5 -65t67.5 -171q0 -20 -4 -56h-429q1 -88 59.5 -138.5t150.5 -50.5q48 0 92 24.5t68 61.5zM292 472q-81 0 -131 -47.5t-59 -123.5h364q-2 80 -48.5 125.5t-125.5 45.5
zM124 689q0 17 12 28.5t28 11.5q17 0 30 -11.5t13 -28.5q0 -19 -13 -30.5t-30 -11.5q-16 0 -28 11.5t-12 30.5zM361 689q0 18 12.5 29t30.5 11q16 0 29 -11.5t13 -28.5q0 -19 -13 -30.5t-29 -11.5q-18 0 -30.5 11.5t-12.5 30.5z" />
    <glyph glyph-name="igrave" unicode="&#xec;" horiz-adv-x="238" 
d="M86 0v520h65v-520h-65zM132 615l-121 145l50 39l110 -154z" />
    <glyph glyph-name="iacute" unicode="&#xed;" horiz-adv-x="238" 
d="M86 0v520h65v-520h-65zM228 762l-118 -148l-42 30l110 155z" />
    <glyph glyph-name="icircumflex" unicode="&#xee;" horiz-adv-x="238" 
d="M86 0v520h65v-520h-65zM120 781l143 -123l-36 -42l-109 97l-114 -94l-29 40l141 122h4z" />
    <glyph glyph-name="idieresis" unicode="&#xef;" horiz-adv-x="238" 
d="M86 0v520h65v-520h-65zM-41 689q0 17 12 28.5t28 11.5q17 0 30 -11.5t13 -28.5q0 -19 -13 -30.5t-30 -11.5q-16 0 -28 11.5t-12 30.5zM196 689q0 18 12.5 29t30.5 11q16 0 29 -11.5t13 -28.5q0 -19 -13 -30.5t-29 -11.5q-18 0 -30.5 11.5t-12.5 30.5z" />
    <glyph glyph-name="eth" unicode="&#xf0;" horiz-adv-x="616" 
d="M310 787l49 -21l-28 -64q251 -101 251 -412q0 -138 -75.5 -219t-198.5 -81q-121 0 -197.5 76.5t-76.5 194.5t75.5 190t198.5 72q53 0 104.5 -18.5t82.5 -52.5q-51 137 -187 198l-34 -79l-53 22l35 76q-52 14 -106 17l13 56q64 -8 116 -22zM103 261q0 -92 57.5 -150.5
t147.5 -58.5q97 0 151.5 61.5t54.5 173.5q0 54 -14 85q-26 41 -76.5 65.5t-111.5 24.5q-93 0 -151 -54.5t-58 -146.5z" />
    <glyph glyph-name="ntilde" unicode="&#xf1;" horiz-adv-x="591" 
d="M66 0v520h65v-72q63 84 189 84q214 0 214 -235v-297h-65v287q0 183 -169 183q-52 0 -99 -32.5t-70 -83.5v-354h-65zM165 632l-31 32q59 59 107 59q24 0 63 -25t59 -25q35 0 67 35l26 -33q-44 -57 -99 -57q-29 0 -65.5 25t-53.5 25q-30 0 -73 -36z" />
    <glyph glyph-name="ograve" unicode="&#xf2;" horiz-adv-x="616" 
d="M34 261q0 119 76 195.5t198 76.5q121 0 197.5 -76.5t76.5 -195.5q0 -118 -76.5 -194.5t-197.5 -76.5t-197.5 76.5t-76.5 194.5zM103 261q0 -92 57.5 -150.5t147.5 -58.5t147.5 58t57.5 151q0 92 -58.5 151t-146.5 59q-89 0 -147 -58.5t-58 -151.5zM325 615l-121 145
l50 39l110 -154z" />
    <glyph glyph-name="oacute" unicode="&#xf3;" horiz-adv-x="616" 
d="M34 261q0 119 76 195.5t198 76.5q121 0 197.5 -76.5t76.5 -195.5q0 -118 -76.5 -194.5t-197.5 -76.5t-197.5 76.5t-76.5 194.5zM103 261q0 -92 57.5 -150.5t147.5 -58.5t147.5 58t57.5 151q0 92 -58.5 151t-146.5 59q-89 0 -147 -58.5t-58 -151.5zM410 762l-118 -148
l-42 30l110 155z" />
    <glyph glyph-name="ocircumflex" unicode="&#xf4;" horiz-adv-x="616" 
d="M34 261q0 119 76 195.5t198 76.5q121 0 197.5 -76.5t76.5 -195.5q0 -118 -76.5 -194.5t-197.5 -76.5t-197.5 76.5t-76.5 194.5zM103 261q0 -92 57.5 -150.5t147.5 -58.5t147.5 58t57.5 151q0 92 -58.5 151t-146.5 59q-89 0 -147 -58.5t-58 -151.5zM309 781l143 -123
l-36 -42l-109 97l-114 -94l-29 40l141 122h4z" />
    <glyph glyph-name="otilde" unicode="&#xf5;" horiz-adv-x="616" 
d="M34 261q0 119 76 195.5t198 76.5q121 0 197.5 -76.5t76.5 -195.5q0 -118 -76.5 -194.5t-197.5 -76.5t-197.5 76.5t-76.5 194.5zM103 261q0 -92 57.5 -150.5t147.5 -58.5t147.5 58t57.5 151q0 92 -58.5 151t-146.5 59q-89 0 -147 -58.5t-58 -151.5zM178 632l-31 32
q59 59 107 59q24 0 63 -25t59 -25q35 0 67 35l26 -33q-44 -57 -99 -57q-29 0 -65.5 25t-53.5 25q-30 0 -73 -36z" />
    <glyph glyph-name="odieresis" unicode="&#xf6;" horiz-adv-x="616" 
d="M34 261q0 119 76 195.5t198 76.5q121 0 197.5 -76.5t76.5 -195.5q0 -118 -76.5 -194.5t-197.5 -76.5t-197.5 76.5t-76.5 194.5zM103 261q0 -92 57.5 -150.5t147.5 -58.5t147.5 58t57.5 151q0 92 -58.5 151t-146.5 59q-89 0 -147 -58.5t-58 -151.5zM147 689q0 17 12 28.5
t28 11.5q17 0 30 -11.5t13 -28.5q0 -19 -13 -30.5t-30 -11.5q-16 0 -28 11.5t-12 30.5zM384 689q0 18 12.5 29t30.5 11q16 0 29 -11.5t13 -28.5q0 -19 -13 -30.5t-29 -11.5q-18 0 -30.5 11.5t-12.5 30.5z" />
    <glyph glyph-name="divide" unicode="&#xf7;" horiz-adv-x="582" 
d="M250 566q0 15 12 27t30 12q17 0 28.5 -12.5t11.5 -26.5q0 -16 -11.5 -28t-28.5 -12q-19 0 -30.5 12t-11.5 28zM250 154q0 16 11.5 27.5t30.5 11.5q17 0 28.5 -11.5t11.5 -27.5t-11.5 -28.5t-28.5 -12.5q-19 0 -30.5 12t-11.5 29zM65 331v58h453v-58h-453z" />
    <glyph glyph-name="oslash" unicode="&#xf8;" horiz-adv-x="616" 
d="M34 261q0 119 76 195.5t198 76.5q83 0 149 -39l62 76l45 -36l-61 -75q79 -77 79 -198q0 -118 -76.5 -194.5t-197.5 -76.5q-84 0 -150 39l-55 -68l-47 38l54 67q-76 76 -76 195zM513 261q0 87 -52 145l-262 -326q48 -28 109 -28q90 0 147.5 58t57.5 151zM103 261
q0 -86 50 -142l262 323q-50 29 -107 29q-89 0 -147 -58.5t-58 -151.5z" />
    <glyph glyph-name="ugrave" unicode="&#xf9;" horiz-adv-x="583" 
d="M518 523v-523h-65v87q-29 -45 -76.5 -71t-106.5 -26q-107 0 -160 56.5t-53 173.5v303h65v-290q0 -181 153 -181q58 0 105.5 34.5t72.5 94.5v342h65zM313 615l-121 145l50 39l110 -154z" />
    <glyph glyph-name="uacute" unicode="&#xfa;" horiz-adv-x="583" 
d="M518 523v-523h-65v87q-29 -45 -76.5 -71t-106.5 -26q-107 0 -160 56.5t-53 173.5v303h65v-290q0 -181 153 -181q58 0 105.5 34.5t72.5 94.5v342h65zM392 762l-118 -148l-42 30l110 155z" />
    <glyph glyph-name="ucircumflex" unicode="&#xfb;" horiz-adv-x="583" 
d="M518 523v-523h-65v87q-29 -45 -76.5 -71t-106.5 -26q-107 0 -160 56.5t-53 173.5v303h65v-290q0 -181 153 -181q58 0 105.5 34.5t72.5 94.5v342h65zM293 781l143 -123l-36 -42l-109 97l-114 -94l-29 40l141 122h4z" />
    <glyph glyph-name="udieresis" unicode="&#xfc;" horiz-adv-x="583" 
d="M518 523v-523h-65v87q-29 -45 -76.5 -71t-106.5 -26q-107 0 -160 56.5t-53 173.5v303h65v-290q0 -181 153 -181q58 0 105.5 34.5t72.5 94.5v342h65zM123 689q0 17 12 28.5t28 11.5q17 0 30 -11.5t13 -28.5q0 -19 -13 -30.5t-30 -11.5q-16 0 -28 11.5t-12 30.5zM360 689
q0 18 12.5 29t30.5 11q16 0 29 -11.5t13 -28.5q0 -19 -13 -30.5t-29 -11.5q-18 0 -30.5 11.5t-12.5 30.5z" />
    <glyph glyph-name="yacute" unicode="&#xfd;" horiz-adv-x="535" 
d="M92 -203l18 63q18 -6 25 -6q34 0 59.5 26t54.5 97l14 34l-266 509h78l222 -427l169 427h72l-210 -518q-51 -126 -92.5 -169t-99.5 -43q-24 0 -44 7zM378 762l-118 -148l-42 30l110 155z" />
    <glyph glyph-name="thorn" unicode="&#xfe;" horiz-adv-x="597" 
d="M66 -200v930h65v-287q57 90 185 90q113 0 179.5 -73t66.5 -190q0 -121 -72.5 -200.5t-186.5 -79.5q-53 0 -100.5 18.5t-71.5 50.5v-259h-65zM310 471q-65 0 -113 -37t-66 -87v-202q51 -93 170 -93q83 0 137.5 60t54.5 153t-49.5 149.5t-133.5 56.5z" />
    <glyph glyph-name="ydieresis" unicode="&#xff;" horiz-adv-x="535" 
d="M92 -203l18 63q18 -6 25 -6q34 0 59.5 26t54.5 97l14 34l-266 509h78l222 -427l169 427h72l-210 -518q-51 -126 -92.5 -169t-99.5 -43q-24 0 -44 7zM107 689q0 17 12 28.5t28 11.5q17 0 30 -11.5t13 -28.5q0 -19 -13 -30.5t-30 -11.5q-16 0 -28 11.5t-12 30.5zM344 689
q0 18 12.5 29t30.5 11q16 0 29 -11.5t13 -28.5q0 -19 -13 -30.5t-29 -11.5q-18 0 -30.5 11.5t-12.5 30.5z" />
    <glyph glyph-name="Amacron" unicode="&#x100;" horiz-adv-x="678" 
d="M3 0l307 702h58l307 -702h-74l-85 192h-359l-82 -192h-72zM337 608l-151 -352h304zM190 795v58h297v-58h-297z" />
    <glyph glyph-name="amacron" unicode="&#x101;" horiz-adv-x="533" 
d="M96 410l-35 50q36 33 91.5 53t109.5 20q105 0 159.5 -54.5t54.5 -155.5v-323h-65v86q-63 -93 -196 -93q-84 0 -136 42.5t-52 112.5q0 158 253 158q77 0 131 -16q0 88 -34 134.5t-123 46.5q-80 0 -158 -61zM233 53q66 0 113 37t65 79v62q-53 16 -122 16
q-95 0 -144.5 -21.5t-49.5 -73.5q0 -46 38.5 -72.5t99.5 -26.5zM137 647v59h261v-59h-261z" />
    <glyph glyph-name="Abreve" unicode="&#x102;" horiz-adv-x="678" 
d="M3 0l307 702h58l307 -702h-74l-85 192h-359l-82 -192h-72zM337 608l-151 -352h304zM164 868l34 32q53 -63 143 -63q88 0 140 63l31 -29q-25 -40 -71.5 -67t-99.5 -27q-113 0 -177 91z" />
    <glyph glyph-name="abreve" unicode="&#x103;" horiz-adv-x="533" 
d="M96 410l-35 50q36 33 91.5 53t109.5 20q105 0 159.5 -54.5t54.5 -155.5v-323h-65v86q-63 -93 -196 -93q-84 0 -136 42.5t-52 112.5q0 158 253 158q77 0 131 -16q0 88 -34 134.5t-123 46.5q-80 0 -158 -61zM233 53q66 0 113 37t65 79v62q-53 16 -122 16
q-95 0 -144.5 -21.5t-49.5 -73.5q0 -46 38.5 -72.5t99.5 -26.5zM108 733l29 31q17 -21 52 -40t70 -19q76 0 122 58l24 -30q-61 -90 -147 -90q-50 0 -90 30t-60 60z" />
    <glyph glyph-name="Aogonek" unicode="&#x104;" horiz-adv-x="678" 
d="M651 -139l11 -46q-28 -15 -74 -15q-45 -2 -79.5 21t-34.5 70q0 44 33 76.5t88 45.5l-79 179h-359l-82 -192h-72l307 702h58l307 -702h-19q-43 1 -83.5 -28t-40.5 -66q0 -54 65 -54q29 0 54 9zM337 608l-151 -352h304z" />
    <glyph glyph-name="aogonek" unicode="&#x105;" horiz-adv-x="533" 
d="M465 -135l19 -47q-31 -18 -72 -18q-43 0 -75.5 25t-32.5 73q0 41 31 71t76 44v73q-63 -93 -196 -93q-84 0 -136 42.5t-52 112.5q0 158 253 158q77 0 131 -16q0 88 -34 134.5t-123 46.5q-80 0 -158 -61l-35 50q36 33 91.5 53t109.5 20q105 0 159.5 -54.5t54.5 -155.5v-323
h-9q-32 -2 -64 -28t-32 -62q0 -23 14 -38.5t34 -15.5q27 0 46 9zM233 53q66 0 113 37t65 79v62q-53 16 -122 16q-95 0 -144.5 -21.5t-49.5 -73.5q0 -46 38.5 -72.5t99.5 -26.5z" />
    <glyph glyph-name="Cacute" unicode="&#x106;" horiz-adv-x="686" 
d="M624 154l40 -46q-38 -52 -110 -84.5t-154 -32.5q-166 0 -264 97.5t-98 261.5q0 154 96.5 256.5t255.5 102.5q88 0 157 -32t106 -79l-43 -45q-47 45 -97.5 67t-124.5 22q-128 0 -202.5 -81t-74.5 -211q0 -132 80.5 -212t211.5 -80q136 0 221 96zM531 853l-188 -91l-23 42
l183 107z" />
    <glyph glyph-name="cacute" unicode="&#x107;" horiz-adv-x="528" 
d="M473 135l45 -36q-27 -51 -86 -80t-121 -29q-124 0 -200.5 74t-76.5 197q0 117 75.5 194.5t197.5 77.5q63 0 119 -27t83 -72l-51 -36q-55 73 -151 73q-88 0 -146 -59.5t-58 -150.5q0 -95 59 -152t154 -57q99 0 157 83zM415 762l-118 -148l-42 30l110 155z" />
    <glyph glyph-name="Ccircumflex" unicode="&#x108;" horiz-adv-x="686" 
d="M624 154l40 -46q-38 -52 -110 -84.5t-154 -32.5q-166 0 -264 97.5t-98 261.5q0 154 96.5 256.5t255.5 102.5q88 0 157 -32t106 -79l-43 -45q-47 45 -97.5 67t-124.5 22q-128 0 -202.5 -81t-74.5 -211q0 -132 80.5 -212t211.5 -80q136 0 221 96zM378 905l183 -103l-30 -43
l-155 83l-153 -83l-23 43l174 103h4z" />
    <glyph glyph-name="ccircumflex" unicode="&#x109;" horiz-adv-x="528" 
d="M473 135l45 -36q-27 -51 -86 -80t-121 -29q-124 0 -200.5 74t-76.5 197q0 117 75.5 194.5t197.5 77.5q63 0 119 -27t83 -72l-51 -36q-55 73 -151 73q-88 0 -146 -59.5t-58 -150.5q0 -95 59 -152t154 -57q99 0 157 83zM295 781l143 -123l-36 -42l-109 97l-114 -94l-29 40
l141 122h4z" />
    <glyph glyph-name="Cdotaccent" unicode="&#x10a;" horiz-adv-x="686" 
d="M624 154l40 -46q-38 -52 -110 -84.5t-154 -32.5q-166 0 -264 97.5t-98 261.5q0 154 96.5 256.5t255.5 102.5q88 0 157 -32t106 -79l-43 -45q-47 45 -97.5 67t-124.5 22q-128 0 -202.5 -81t-74.5 -211q0 -132 80.5 -212t211.5 -80q136 0 221 96zM334 826q0 18 13 30t31 12
t31 -12t13 -30q0 -19 -13 -32t-31 -13t-31 13t-13 32z" />
    <glyph glyph-name="cdotaccent" unicode="&#x10b;" horiz-adv-x="528" 
d="M473 135l45 -36q-27 -51 -86 -80t-121 -29q-124 0 -200.5 74t-76.5 197q0 117 75.5 194.5t197.5 77.5q63 0 119 -27t83 -72l-51 -36q-55 73 -151 73q-88 0 -146 -59.5t-58 -150.5q0 -95 59 -152t154 -57q99 0 157 83zM250 690q0 17 13.5 29t31.5 12q17 0 30 -12t13 -29
q0 -20 -13 -32.5t-30 -12.5q-19 0 -32 12.5t-13 32.5z" />
    <glyph glyph-name="Ccaron" unicode="&#x10c;" horiz-adv-x="686" 
d="M624 154l40 -46q-38 -52 -110 -84.5t-154 -32.5q-166 0 -264 97.5t-98 261.5q0 154 96.5 256.5t255.5 102.5q88 0 157 -32t106 -79l-43 -45q-47 45 -97.5 67t-124.5 22q-128 0 -202.5 -81t-74.5 -211q0 -132 80.5 -212t211.5 -80q136 0 221 96zM375 760l-182 102l29 43
l155 -85l153 85l24 -42l-175 -103h-4z" />
    <glyph glyph-name="ccaron" unicode="&#x10d;" horiz-adv-x="528" 
d="M473 135l45 -36q-27 -51 -86 -80t-121 -29q-124 0 -200.5 74t-76.5 197q0 117 75.5 194.5t197.5 77.5q63 0 119 -27t83 -72l-51 -36q-55 73 -151 73q-88 0 -146 -59.5t-58 -150.5q0 -95 59 -152t154 -57q99 0 157 83zM302 625l-143 124l36 41l108 -96l115 94l29 -40
l-141 -123h-4z" />
    <glyph glyph-name="Dcaron" unicode="&#x10e;" horiz-adv-x="710" 
d="M77 0v700h214q101 0 176.5 -27t119 -75t64.5 -107.5t21 -130.5q0 -159 -99 -259.5t-291 -100.5h-205zM289 634h-141v-568h138q158 0 235.5 80.5t77.5 213.5q0 125 -74.5 199.5t-235.5 74.5zM297 760l-182 102l29 43l155 -85l153 85l24 -42l-175 -103h-4z" />
    <glyph glyph-name="dcaron" unicode="&#x10f;" horiz-adv-x="606" 
d="M465 0v69q-17 -29 -62.5 -53.5t-108.5 -24.5q-117 0 -188.5 72.5t-71.5 195.5q0 120 77 197t190 77q107 0 164 -59v256h65v-730h-65zM300 53q61 0 103.5 35.5t61.5 76.5v223q-54 83 -162 83q-82 0 -141 -58.5t-59 -151.5q0 -95 55 -151.5t142 -56.5zM611 730h66
q11 -24 11 -62q0 -44 -26 -82.5t-59 -59.5l-29 28q23 17 38.5 48t15.5 57q0 48 -17 71z" />
    <glyph glyph-name="Dcroat" unicode="&#x110;" horiz-adv-x="765" 
d="M8 317v60h125v323h213q101 0 177 -27t119.5 -75t64 -107.5t20.5 -130.5q0 -159 -99 -259.5t-291 -100.5h-204v317h-125zM344 634h-140v-257h198v-60h-198v-251h137q158 0 235.5 80.5t77.5 213.5q0 125 -74.5 199.5t-235.5 74.5z" />
    <glyph glyph-name="dcroat" unicode="&#x111;" horiz-adv-x="596" 
d="M355 591v61h110v78h65v-78h65v-61h-65v-591h-65v69q-17 -29 -62.5 -53.5t-108.5 -24.5q-117 0 -188.5 72.5t-71.5 195.5q0 120 77 197t190 77q107 0 164 -59v117h-110zM300 53q61 0 103.5 35.5t61.5 76.5v223q-54 83 -162 83q-82 0 -141 -58.5t-59 -151.5
q0 -95 55 -151.5t142 -56.5z" />
    <glyph glyph-name="Emacron" unicode="&#x112;" horiz-adv-x="638" 
d="M77 0v700h499v-66h-428v-245h400v-66h-400v-257h438v-66h-509zM178 795v58h297v-58h-297z" />
    <glyph glyph-name="emacron" unicode="&#x113;" horiz-adv-x="570" 
d="M473 138l44 -39q-70 -109 -207 -109q-124 0 -200 74t-76 197q0 119 69.5 195.5t193.5 76.5q104 0 171.5 -65t67.5 -171q0 -20 -4 -56h-429q1 -88 59.5 -138.5t150.5 -50.5q48 0 92 24.5t68 61.5zM292 472q-81 0 -131 -47.5t-59 -123.5h364q-2 80 -48.5 125.5t-125.5 45.5
zM163 647v59h261v-59h-261z" />
    <glyph glyph-name="Edotaccent" unicode="&#x116;" horiz-adv-x="638" 
d="M77 0v700h499v-66h-428v-245h400v-66h-400v-257h438v-66h-509zM284 826q0 18 13 30t31 12t31 -12t13 -30q0 -19 -13 -32t-31 -13t-31 13t-13 32z" />
    <glyph glyph-name="edotaccent" unicode="&#x117;" horiz-adv-x="570" 
d="M473 138l44 -39q-70 -109 -207 -109q-124 0 -200 74t-76 197q0 119 69.5 195.5t193.5 76.5q104 0 171.5 -65t67.5 -171q0 -20 -4 -56h-429q1 -88 59.5 -138.5t150.5 -50.5q48 0 92 24.5t68 61.5zM292 472q-81 0 -131 -47.5t-59 -123.5h364q-2 80 -48.5 125.5t-125.5 45.5
zM250 690q0 17 13.5 29t31.5 12q17 0 30 -12t13 -29q0 -20 -13 -32.5t-30 -12.5q-19 0 -32 12.5t-13 32.5z" />
    <glyph glyph-name="Eogonek" unicode="&#x118;" horiz-adv-x="638" 
d="M77 0v700h499v-66h-428v-245h400v-66h-400v-257h438v-66h-13q-42 -2 -79 -30t-37 -64q0 -54 65 -54q28 0 54 9l11 -46q-28 -15 -74 -15q-45 -2 -79.5 21t-34.5 70q0 73 82 109h-404z" />
    <glyph glyph-name="eogonek" unicode="&#x119;" horiz-adv-x="570" 
d="M473 138l44 -39q-38 -59 -99 -87q-81 -58 -81 -102q0 -23 14 -38.5t34 -15.5q27 0 46 9l19 -47q-31 -18 -72 -18q-42 0 -75 23t-33 64q0 57 70 105q-20 -2 -30 -2q-124 0 -200 74t-76 197q0 119 69.5 195.5t193.5 76.5q104 0 171.5 -65t67.5 -171q0 -20 -4 -56h-429
q1 -88 59.5 -138.5t150.5 -50.5q48 0 92 24.5t68 61.5zM292 472q-81 0 -131 -47.5t-59 -123.5h364q-2 80 -48.5 125.5t-125.5 45.5z" />
    <glyph glyph-name="Ecaron" unicode="&#x11a;" horiz-adv-x="638" 
d="M77 0v700h499v-66h-428v-245h400v-66h-400v-257h438v-66h-509zM335 760l-182 102l29 43l155 -85l153 85l24 -42l-175 -103h-4z" />
    <glyph glyph-name="ecaron" unicode="&#x11b;" horiz-adv-x="570" 
d="M473 138l44 -39q-70 -109 -207 -109q-124 0 -200 74t-76 197q0 119 69.5 195.5t193.5 76.5q104 0 171.5 -65t67.5 -171q0 -20 -4 -56h-429q1 -88 59.5 -138.5t150.5 -50.5q48 0 92 24.5t68 61.5zM292 472q-81 0 -131 -47.5t-59 -123.5h364q-2 80 -48.5 125.5t-125.5 45.5
zM284 625l-143 124l36 41l108 -96l115 94l29 -40l-141 -123h-4z" />
    <glyph glyph-name="Gcircumflex" unicode="&#x11c;" horiz-adv-x="707" 
d="M403 281v66h266v-254q-44 -47 -118 -74.5t-149 -27.5q-159 0 -261.5 98.5t-102.5 260.5q0 151 103 255t253 104q169 0 258 -101l-42 -47q-75 82 -210 82q-128 0 -208.5 -82t-80.5 -211q0 -133 82 -213t211 -80q117 0 198 68v156h-199zM378 905l183 -103l-30 -43l-155 83
l-153 -83l-23 43l174 103h4z" />
    <glyph glyph-name="gcircumflex" unicode="&#x11d;" horiz-adv-x="595" 
d="M530 520v-482q0 -126 -64.5 -186.5t-172.5 -60.5q-77 0 -138 33.5t-81 87.5l58 27q18 -36 60 -61t105 -25q81 0 124.5 46.5t43.5 128.5v37q-29 -37 -66.5 -56t-103.5 -19q-118 0 -189.5 73t-71.5 198q0 123 74.5 197t188.5 74q58 0 103 -19.5t65 -45.5v53h65zM305 52
q59 0 101.5 32.5t58.5 78.5v221q-21 38 -63 62t-98 24q-85 0 -142.5 -56t-57.5 -155q0 -95 55 -151t146 -56zM301 781l143 -123l-36 -42l-109 97l-114 -94l-29 40l141 122h4z" />
    <glyph glyph-name="Gbreve" unicode="&#x11e;" horiz-adv-x="707" 
d="M403 281v66h266v-254q-44 -47 -118 -74.5t-149 -27.5q-159 0 -261.5 98.5t-102.5 260.5q0 151 103 255t253 104q169 0 258 -101l-42 -47q-75 82 -210 82q-128 0 -208.5 -82t-80.5 -211q0 -133 82 -213t211 -80q117 0 198 68v156h-199zM207 868l34 32q53 -63 143 -63
q88 0 140 63l31 -29q-25 -40 -71.5 -67t-99.5 -27q-113 0 -177 91z" />
    <glyph glyph-name="gbreve" unicode="&#x11f;" horiz-adv-x="595" 
d="M530 520v-482q0 -126 -64.5 -186.5t-172.5 -60.5q-77 0 -138 33.5t-81 87.5l58 27q18 -36 60 -61t105 -25q81 0 124.5 46.5t43.5 128.5v37q-29 -37 -66.5 -56t-103.5 -19q-118 0 -189.5 73t-71.5 198q0 123 74.5 197t188.5 74q58 0 103 -19.5t65 -45.5v53h65zM305 52
q59 0 101.5 32.5t58.5 78.5v221q-21 38 -63 62t-98 24q-85 0 -142.5 -56t-57.5 -155q0 -95 55 -151t146 -56zM150 733l29 31q17 -21 52 -40t70 -19q76 0 122 58l24 -30q-61 -90 -147 -90q-50 0 -90 30t-60 60z" />
    <glyph glyph-name="Gdotaccent" unicode="&#x120;" horiz-adv-x="707" 
d="M403 281v66h266v-254q-44 -47 -118 -74.5t-149 -27.5q-159 0 -261.5 98.5t-102.5 260.5q0 151 103 255t253 104q169 0 258 -101l-42 -47q-75 82 -210 82q-128 0 -208.5 -82t-80.5 -211q0 -133 82 -213t211 -80q117 0 198 68v156h-199zM342 826q0 18 13 30t31 12t31 -12
t13 -30q0 -19 -13 -32t-31 -13t-31 13t-13 32z" />
    <glyph glyph-name="gdotaccent" unicode="&#x121;" horiz-adv-x="595" 
d="M530 520v-482q0 -126 -64.5 -186.5t-172.5 -60.5q-77 0 -138 33.5t-81 87.5l58 27q18 -36 60 -61t105 -25q81 0 124.5 46.5t43.5 128.5v37q-29 -37 -66.5 -56t-103.5 -19q-118 0 -189.5 73t-71.5 198q0 123 74.5 197t188.5 74q58 0 103 -19.5t65 -45.5v53h65zM305 52
q59 0 101.5 32.5t58.5 78.5v221q-21 38 -63 62t-98 24q-85 0 -142.5 -56t-57.5 -155q0 -95 55 -151t146 -56zM264 690q0 17 13.5 29t31.5 12q17 0 30 -12t13 -29q0 -20 -13 -32.5t-30 -12.5q-19 0 -32 12.5t-13 32.5z" />
    <glyph glyph-name="Gcommaaccent" unicode="&#x122;" horiz-adv-x="707" 
d="M403 281v66h266v-254q-44 -47 -118 -74.5t-149 -27.5q-159 0 -261.5 98.5t-102.5 260.5q0 151 103 255t253 104q169 0 258 -101l-42 -47q-75 82 -210 82q-128 0 -208.5 -82t-80.5 -211q0 -133 82 -213t211 -80q117 0 198 68v156h-199zM374 -86l54 37q35 -33 35 -75
t-23 -76t-51 -51l-30 27q41 39 41 83q0 31 -26 55z" />
    <glyph glyph-name="gcommaaccent" unicode="&#x123;" horiz-adv-x="595" 
d="M342 635l-54 -36q-35 33 -35 75t23 76t51 51l30 -28q-41 -37 -41 -82q0 -30 26 -56zM530 520v-482q0 -125 -63 -186t-164 -61q-84 0 -146.5 33t-82.5 88l58 27q18 -36 60.5 -61t107.5 -25q79 0 122 46.5t43 128.5v37q-29 -37 -66.5 -56t-103.5 -19q-118 0 -189.5 73
t-71.5 198q0 123 74.5 197t188.5 74q58 0 103 -19.5t65 -45.5v53h65zM305 52q59 0 101.5 32.5t58.5 78.5v221q-21 38 -63 62t-98 24q-85 0 -142.5 -56t-57.5 -155q0 -95 55 -151t146 -56z" />
    <glyph glyph-name="Hcircumflex" unicode="&#x124;" horiz-adv-x="746" 
d="M598 0v323h-450v-323h-71v700h71v-311h450v311h71v-700h-71zM370 905l183 -103l-30 -43l-155 83l-153 -83l-23 43l174 103h4z" />
    <glyph glyph-name="hcircumflex" unicode="&#x125;" horiz-adv-x="591" 
d="M66 0v730h65v-283q63 85 183 85q219 0 219 -236v-296h-65v288q0 182 -168 182q-60 0 -103.5 -34.5t-65.5 -88.5v-347h-65zM106 879l183 -103l-30 -43l-155 83l-153 -83l-23 43l174 103h4z" />
    <glyph glyph-name="Hbar" unicode="&#x126;" horiz-adv-x="746" 
d="M0 519v59h77v122h71v-122h450v122h71v-122h77v-59h-77v-519h-71v323h-450v-323h-71v519h-77zM148 389h450v130h-450v-130z" />
    <glyph glyph-name="hbar" unicode="&#x127;" horiz-adv-x="591" 
d="M0 591v61h66v78h65v-78h109v-61h-109v-144q63 85 183 85q219 0 219 -236v-296h-65v288q0 182 -168 182q-60 0 -103.5 -34.5t-65.5 -88.5v-347h-65v591h-66z" />
    <glyph glyph-name="Imacron" unicode="&#x12a;" horiz-adv-x="245" 
d="M87 0v700h71v-700h-71zM-27 795v58h297v-58h-297z" />
    <glyph glyph-name="imacron" unicode="&#x12b;" horiz-adv-x="238" 
d="M86 0v520h65v-520h-65zM-11 647v59h261v-59h-261z" />
    <glyph glyph-name="Iogonek" unicode="&#x12e;" horiz-adv-x="245" 
d="M149 -139l11 -46q-28 -15 -74 -15q-45 -2 -79.5 21t-34.5 70q0 43 31 74.5t84 45.5v689h71v-700h-4q-43 1 -83.5 -28t-40.5 -66q0 -54 65 -54q29 0 54 9z" />
    <glyph glyph-name="iogonek" unicode="&#x12f;" horiz-adv-x="238" 
d="M143 -135l19 -47q-31 -18 -72 -18q-43 0 -75.5 25t-32.5 73q0 40 30 70t74 44v508h65v-520h-6q-32 -2 -64 -28t-32 -62q0 -23 14 -38.5t34 -15.5q27 0 46 9zM75 686q0 18 13.5 30t31.5 12q17 0 30 -12t13 -30q0 -19 -13 -32t-30 -13q-19 0 -32 13t-13 32z" />
    <glyph glyph-name="Idotaccent" unicode="&#x130;" horiz-adv-x="245" 
d="M87 0v700h71v-700h-71zM78 826q0 18 13 30t31 12t31 -12t13 -30q0 -19 -13 -32t-31 -13t-31 13t-13 32z" />
    <glyph glyph-name="dotlessi" unicode="&#x131;" horiz-adv-x="238" 
d="M86 0v520h65v-520h-65z" />
    <glyph glyph-name="Jcircumflex" unicode="&#x134;" horiz-adv-x="485" 
d="M409 700v-492q0 -104 -56.5 -160.5t-150.5 -56.5q-75 0 -127 37t-77 88l54 40q22 -42 60.5 -71t85.5 -29q68 2 104 39.5t36 124.5v480h71zM363 905l183 -103l-30 -43l-155 83l-153 -83l-23 43l174 103h4z" />
    <glyph glyph-name="jcircumflex" unicode="&#x135;" horiz-adv-x="240" 
d="M155 520v-525q0 -204 -155 -204q-46 0 -82 19t-53 51l52 34q24 -28 42 -35q16 -7 39 -7q45 0 68.5 38t23.5 107v522h65zM121 781l143 -123l-36 -42l-109 97l-114 -94l-29 40l141 122h4z" />
    <glyph glyph-name="Kcommaaccent" unicode="&#x136;" horiz-adv-x="650" 
d="M77 0v700h71v-358l381 358h93l-339 -319l365 -381h-97l-319 334l-84 -77v-257h-71zM277 -86l54 37q35 -33 35 -75t-23 -76t-51 -51l-30 27q41 39 41 83q0 31 -26 55z" />
    <glyph glyph-name="kcommaaccent" unicode="&#x137;" horiz-adv-x="521" 
d="M66 0v730h65v-459l280 249h89l-259 -232l279 -288h-87l-244 246l-58 -47v-199h-65zM212 -86l54 37q35 -35 35 -75q0 -42 -23 -76t-51 -51l-30 27q41 39 41 83q0 31 -26 55z" />
    <glyph glyph-name="Lacute" unicode="&#x139;" horiz-adv-x="584" 
d="M77 0v700h71v-634h426v-66h-497zM443 853l-188 -91l-23 42l183 107z" />
    <glyph glyph-name="lacute" unicode="&#x13a;" horiz-adv-x="197" 
d="M66 0v730h65v-730h-65zM274 853l-188 -91l-23 42l183 107z" />
    <glyph glyph-name="Lcommaaccent" unicode="&#x13b;" horiz-adv-x="584" 
d="M77 0v700h71v-634h426v-66h-497zM279 -86l54 37q35 -33 35 -75t-23 -76t-51 -51l-30 27q41 39 41 83q0 31 -26 55z" />
    <glyph glyph-name="lcommaaccent" unicode="&#x13c;" horiz-adv-x="197" 
d="M66 0v730h65v-730h-65zM62 -86l54 37q35 -35 35 -75q0 -42 -23 -76t-51 -51l-30 27q41 39 41 83q0 31 -26 55z" />
    <glyph glyph-name="Lcaron" unicode="&#x13d;" horiz-adv-x="584" 
d="M77 0v700h71v-634h426v-66h-497zM389 700h66q11 -24 11 -62q0 -44 -26 -82.5t-59 -59.5l-29 28q23 17 38.5 48t15.5 57q0 48 -17 71z" />
    <glyph glyph-name="lcaron" unicode="&#x13e;" horiz-adv-x="213" 
d="M66 0v730h65v-730h-65zM209 730h66q11 -24 11 -62q0 -44 -26 -82.5t-59 -59.5l-29 28q23 17 38.5 48t15.5 57q0 48 -17 71z" />
    <glyph glyph-name="Ldot" unicode="&#x13f;" horiz-adv-x="584" 
d="M77 0v700h71v-634h426v-66h-497zM356 375q0 16 13.5 29t32.5 13q18 0 31 -13t13 -29q0 -18 -13 -31t-31 -13q-20 0 -33 13t-13 31z" />
    <glyph glyph-name="ldot" unicode="&#x140;" horiz-adv-x="269" 
d="M66 0v730h65v-730h-65zM193 362q0 16 13.5 29t32.5 13q18 0 31 -13t13 -29q0 -18 -13 -31t-31 -13q-20 0 -33 13t-13 31z" />
    <glyph glyph-name="Lslash" unicode="&#x141;" horiz-adv-x="590" 
d="M0 155v74l84 62v409h71v-357l209 155v-74l-209 -155v-203h426v-66h-497v217z" />
    <glyph glyph-name="lslash" unicode="&#x142;" horiz-adv-x="275" 
d="M0 206v74l102 75v375h65v-327l108 80v-74l-108 -80v-329h-65v281z" />
    <glyph glyph-name="Nacute" unicode="&#x143;" horiz-adv-x="736" 
d="M658 0h-56l-457 572v-572h-68v700h56l457 -574v574h68v-700zM538 853l-188 -91l-23 42l183 107z" />
    <glyph glyph-name="nacute" unicode="&#x144;" horiz-adv-x="591" 
d="M66 0v520h65v-72q63 84 189 84q214 0 214 -235v-297h-65v287q0 183 -169 183q-52 0 -99 -32.5t-70 -83.5v-354h-65zM413 762l-118 -148l-42 30l110 155z" />
    <glyph glyph-name="Ncommaaccent" unicode="&#x145;" horiz-adv-x="736" 
d="M658 0h-56l-457 572v-572h-68v700h56l457 -574v574h68v-700zM337 -86l54 37q35 -33 35 -75t-23 -76t-51 -51l-30 27q41 39 41 83q0 31 -26 55z" />
    <glyph glyph-name="ncommaaccent" unicode="&#x146;" horiz-adv-x="591" 
d="M66 0v520h65v-72q63 84 189 84q214 0 214 -235v-297h-65v287q0 183 -169 183q-52 0 -99 -32.5t-70 -83.5v-354h-65zM248 -86l54 37q35 -35 35 -75q0 -42 -23 -76t-51 -51l-30 27q41 39 41 83q0 31 -26 55z" />
    <glyph glyph-name="Ncaron" unicode="&#x147;" horiz-adv-x="736" 
d="M658 0h-56l-457 572v-572h-68v700h56l457 -574v574h68v-700zM369 760l-182 102l29 43l155 -85l153 85l24 -42l-175 -103h-4z" />
    <glyph glyph-name="ncaron" unicode="&#x148;" horiz-adv-x="591" 
d="M66 0v520h65v-72q63 84 189 84q214 0 214 -235v-297h-65v287q0 183 -169 183q-52 0 -99 -32.5t-70 -83.5v-354h-65zM295 625l-143 124l36 41l108 -96l115 94l29 -40l-141 -123h-4z" />
    <glyph glyph-name="Omacron" unicode="&#x14c;" horiz-adv-x="783" 
d="M38 350q0 152 102.5 255.5t251.5 103.5t251 -102t102 -257q0 -154 -102 -256.5t-251 -102.5t-251.5 102t-102.5 257zM111 350q0 -125 82.5 -209t198.5 -84q120 0 200 83.5t80 209.5t-82 209.5t-198 83.5q-117 0 -199 -83.5t-82 -209.5zM243 795v58h297v-58h-297z" />
    <glyph glyph-name="omacron" unicode="&#x14d;" horiz-adv-x="616" 
d="M34 261q0 119 76 195.5t198 76.5q121 0 197.5 -76.5t76.5 -195.5q0 -118 -76.5 -194.5t-197.5 -76.5t-197.5 76.5t-76.5 194.5zM103 261q0 -92 57.5 -150.5t147.5 -58.5t147.5 58t57.5 151q0 92 -58.5 151t-146.5 59q-89 0 -147 -58.5t-58 -151.5zM178 647v59h261v-59
h-261z" />
    <glyph glyph-name="Ohungarumlaut" unicode="&#x150;" horiz-adv-x="783" 
d="M38 350q0 152 102.5 255.5t251.5 103.5t251 -102t102 -257q0 -154 -102 -256.5t-251 -102.5t-251.5 102t-102.5 257zM111 350q0 -125 82.5 -209t198.5 -84q120 0 200 83.5t80 209.5t-82 209.5t-198 83.5q-117 0 -199 -83.5t-82 -209.5zM629 850l-162 -94l-26 37l154 106z
M451 855l-156 -99l-25 36l142 107z" />
    <glyph glyph-name="ohungarumlaut" unicode="&#x151;" horiz-adv-x="616" 
d="M34 261q0 119 76 195.5t198 76.5q121 0 197.5 -76.5t76.5 -195.5q0 -118 -76.5 -194.5t-197.5 -76.5t-197.5 76.5t-76.5 194.5zM103 261q0 -92 57.5 -150.5t147.5 -58.5t147.5 58t57.5 151q0 92 -58.5 151t-146.5 59q-89 0 -147 -58.5t-58 -151.5zM507 777l-133 -163
l-38 28l123 170zM360 779l-130 -165l-38 28l121 172z" />
    <glyph glyph-name="OE" unicode="&#x152;" horiz-adv-x="1196" 
d="M635 0v96q-47 -49 -110.5 -77t-132.5 -28q-149 0 -251.5 102t-102.5 257q0 152 102.5 255.5t251.5 103.5q152 0 243 -105v96h499v-66h-428v-245h400v-66h-400v-257h438v-66h-509zM392 57q79 0 143 38t100 104v298q-36 67 -101 106.5t-142 39.5q-117 0 -199 -83.5
t-82 -209.5q0 -125 82.5 -209t198.5 -84z" />
    <glyph glyph-name="oe" unicode="&#x153;" horiz-adv-x="979" 
d="M883 138l43 -39q-70 -109 -206 -109q-134 0 -208 82q-76 -82 -204 -82q-121 0 -197.5 76.5t-76.5 194.5q0 119 76 195.5t198 76.5q124 0 201 -80q72 80 198 80q103 0 170.5 -65t67.5 -171q0 -32 -4 -56h-427q1 -88 59.5 -138.5t149.5 -50.5q48 0 92 24.5t68 61.5zM310 52
q112 0 166 70q-32 59 -32 139q0 77 30 139q-60 71 -166 71q-89 0 -147 -58.5t-58 -151.5q0 -92 58 -150.5t149 -58.5zM701 472q-80 0 -130 -47.5t-59 -123.5h364q-2 80 -48.5 125.5t-126.5 45.5z" />
    <glyph glyph-name="Racute" unicode="&#x154;" horiz-adv-x="675" 
d="M148 0h-71v700h264q266 0 266 -204q0 -76 -50.5 -129.5t-131.5 -67.5l233 -299h-86l-220 286h-204v-286zM338 634h-190v-282h196q86 0 138 39.5t52 104.5q0 138 -196 138zM453 853l-188 -91l-23 42l183 107z" />
    <glyph glyph-name="racute" unicode="&#x155;" horiz-adv-x="349" 
d="M66 0v520h65v-50q14 31 47 46.5t69 15.5q68 0 106 -48l-44 -43q-24 29 -69 29q-39 0 -69.5 -29t-39.5 -73v-368h-65zM308 762l-118 -148l-42 30l110 155z" />
    <glyph glyph-name="Rcommaaccent" unicode="&#x156;" horiz-adv-x="675" 
d="M148 0h-71v700h264q266 0 266 -204q0 -76 -50.5 -129.5t-131.5 -67.5l233 -299h-86l-220 286h-204v-286zM338 634h-190v-282h196q86 0 138 39.5t52 104.5q0 138 -196 138zM296 -86l54 37q35 -33 35 -75t-23 -76t-51 -51l-30 27q41 39 41 83q0 31 -26 55z" />
    <glyph glyph-name="rcommaaccent" unicode="&#x157;" horiz-adv-x="349" 
d="M66 0v520h65v-50q14 31 47 46.5t69 15.5q68 0 106 -48l-44 -43q-24 29 -69 29q-39 0 -69.5 -29t-39.5 -73v-368h-65zM89 -86l54 37q35 -35 35 -75q0 -42 -23 -76t-51 -51l-30 27q41 39 41 83q0 31 -26 55z" />
    <glyph glyph-name="Rcaron" unicode="&#x158;" horiz-adv-x="675" 
d="M148 0h-71v700h264q266 0 266 -204q0 -76 -50.5 -129.5t-131.5 -67.5l233 -299h-86l-220 286h-204v-286zM338 634h-190v-282h196q86 0 138 39.5t52 104.5q0 138 -196 138zM307 760l-182 102l29 43l155 -85l153 85l24 -42l-175 -103h-4z" />
    <glyph glyph-name="rcaron" unicode="&#x159;" horiz-adv-x="349" 
d="M66 0v520h65v-50q14 31 47 46.5t69 15.5q68 0 106 -48l-44 -43q-24 29 -69 29q-39 0 -69.5 -29t-39.5 -73v-368h-65zM199 625l-143 124l36 41l108 -96l115 94l29 -40l-141 -123h-4z" />
    <glyph glyph-name="Sacute" unicode="&#x15a;" horiz-adv-x="614" 
d="M496 183q0 45 -33 74t-82.5 41.5t-107 28.5t-107 33.5t-82.5 58.5t-33 102q0 79 70.5 133.5t184.5 54.5q172 0 249 -96l-45 -45q-79 75 -204 75q-29 0 -59 -6.5t-58.5 -19.5t-46.5 -37t-18 -56q0 -39 24.5 -65.5t64 -41t86.5 -26t94.5 -25.5t87 -33.5t64 -56t24.5 -87.5
q0 -87 -71 -142.5t-179 -55.5q-90 0 -167 38t-115 94l48 49q35 -47 98 -81t143 -34q69 0 119.5 34.5t50.5 91.5zM471 853l-188 -91l-23 42l183 107z" />
    <glyph glyph-name="sacute" unicode="&#x15b;" horiz-adv-x="497" 
d="M395 138q0 32 -35.5 53.5t-86.5 35t-102.5 29.5t-87 49t-35.5 82q0 67 54 106.5t146 39.5q61 0 117.5 -25t83.5 -64l-47 -42q-21 29 -66 49t-93 20q-126 0 -126 -79q0 -26 25.5 -45.5t64.5 -30t83.5 -25.5t83.5 -31t64.5 -47t25.5 -74q0 -73 -58 -111t-147 -38
q-76 0 -139.5 33t-90.5 89l52 38q24 -45 74.5 -71.5t107.5 -26.5q51 0 91.5 21t40.5 65zM367 762l-118 -148l-42 30l110 155z" />
    <glyph glyph-name="Scircumflex" unicode="&#x15c;" horiz-adv-x="614" 
d="M496 183q0 45 -33 74t-82.5 41.5t-107 28.5t-107 33.5t-82.5 58.5t-33 102q0 79 70.5 133.5t184.5 54.5q172 0 249 -96l-45 -45q-79 75 -204 75q-29 0 -59 -6.5t-58.5 -19.5t-46.5 -37t-18 -56q0 -39 24.5 -65.5t64 -41t86.5 -26t94.5 -25.5t87 -33.5t64 -56t24.5 -87.5
q0 -87 -71 -142.5t-179 -55.5q-90 0 -167 38t-115 94l48 49q35 -47 98 -81t143 -34q69 0 119.5 34.5t50.5 91.5zM306 905l183 -103l-30 -43l-155 83l-153 -83l-23 43l174 103h4z" />
    <glyph glyph-name="scircumflex" unicode="&#x15d;" horiz-adv-x="497" 
d="M395 138q0 32 -35.5 53.5t-86.5 35t-102.5 29.5t-87 49t-35.5 82q0 67 54 106.5t146 39.5q61 0 117.5 -25t83.5 -64l-47 -42q-21 29 -66 49t-93 20q-126 0 -126 -79q0 -26 25.5 -45.5t64.5 -30t83.5 -25.5t83.5 -31t64.5 -47t25.5 -74q0 -73 -58 -111t-147 -38
q-76 0 -139.5 33t-90.5 89l52 38q24 -45 74.5 -71.5t107.5 -26.5q51 0 91.5 21t40.5 65zM251 781l143 -123l-36 -42l-109 97l-114 -94l-29 40l141 122h4z" />
    <glyph glyph-name="Scedilla" unicode="&#x15e;" horiz-adv-x="614" 
d="M204 -173l21 43q40 -21 75 -21q33 0 44 8t11 25q0 33 -57 33h-23v79q-77 9 -141 44.5t-97 84.5l48 49q35 -47 98 -81t143 -34q69 0 119.5 34.5t50.5 91.5q0 45 -33 74t-82.5 41.5t-107 28.5t-107 33.5t-82.5 58.5t-33 102q0 79 70.5 133.5t184.5 54.5q172 0 249 -96
l-45 -45q-79 75 -204 75q-29 0 -59 -6.5t-58.5 -19.5t-46.5 -37t-18 -56q0 -39 24.5 -65.5t64 -41t86.5 -26t94.5 -25.5t87 -33.5t64 -56t24.5 -87.5q0 -87 -70 -142t-178 -56v-32q99 -3 99 -78q0 -36 -28.5 -59.5t-86.5 -23.5q-61 0 -101 29z" />
    <glyph glyph-name="scedilla" unicode="&#x15f;" horiz-adv-x="497" 
d="M152 -173l20 43q39 -21 75 -21q32 0 43.5 8t11.5 25q0 33 -58 33h-22v77q-65 8 -117 39.5t-76 80.5l52 38q24 -45 74.5 -71.5t107.5 -26.5q51 0 91.5 21t40.5 65q0 32 -35.5 53.5t-86.5 35t-102.5 29.5t-87 49t-35.5 82q0 67 54 106.5t146 39.5q61 0 117.5 -25t83.5 -64
l-47 -42q-21 29 -66 49t-93 20q-126 0 -126 -79q0 -26 25.5 -45.5t64.5 -30t83.5 -25.5t83.5 -31t64.5 -47t25.5 -74q0 -72 -55.5 -109.5t-141.5 -39.5v-31q49 -1 73.5 -22.5t24.5 -55.5q0 -36 -29.5 -59.5t-87.5 -23.5q-56 0 -96 29z" />
    <glyph glyph-name="Scaron" unicode="&#x160;" horiz-adv-x="614" 
d="M496 183q0 45 -33 74t-82.5 41.5t-107 28.5t-107 33.5t-82.5 58.5t-33 102q0 79 70.5 133.5t184.5 54.5q172 0 249 -96l-45 -45q-79 75 -204 75q-29 0 -59 -6.5t-58.5 -19.5t-46.5 -37t-18 -56q0 -39 24.5 -65.5t64 -41t86.5 -26t94.5 -25.5t87 -33.5t64 -56t24.5 -87.5
q0 -87 -71 -142.5t-179 -55.5q-90 0 -167 38t-115 94l48 49q35 -47 98 -81t143 -34q69 0 119.5 34.5t50.5 91.5zM308 760l-182 102l29 43l155 -85l153 85l24 -42l-175 -103h-4z" />
    <glyph glyph-name="scaron" unicode="&#x161;" horiz-adv-x="497" 
d="M395 138q0 32 -35.5 53.5t-86.5 35t-102.5 29.5t-87 49t-35.5 82q0 67 54 106.5t146 39.5q61 0 117.5 -25t83.5 -64l-47 -42q-21 29 -66 49t-93 20q-126 0 -126 -79q0 -26 25.5 -45.5t64.5 -30t83.5 -25.5t83.5 -31t64.5 -47t25.5 -74q0 -73 -58 -111t-147 -38
q-76 0 -139.5 33t-90.5 89l52 38q24 -45 74.5 -71.5t107.5 -26.5q51 0 91.5 21t40.5 65zM248 625l-143 124l36 41l108 -96l115 94l29 -40l-141 -123h-4z" />
    <glyph glyph-name="Tcedilla" unicode="&#x162;" horiz-adv-x="577" 
d="M3 634v66h571v-66h-250v-634h-12v-41q47 -1 70 -22.5t23 -55.5q0 -36 -28.5 -59.5t-86.5 -23.5q-60 0 -102 29l22 43q40 -21 75 -21q32 0 43.5 8t11.5 25q0 33 -58 33h-18v85h-11v634h-250z" />
    <glyph glyph-name="tcedilla" unicode="&#x163;" horiz-adv-x="394" 
d="M148 -173l20 43q39 -21 75 -21q32 0 43.5 8t11.5 25q0 33 -58 33h-22v83q-113 25 -113 196v264h-104v62h104v117h65v-117h186v-62h-186v-249q0 -85 24 -119.5t79 -34.5q51 0 86 44l40 -39q-21 -28 -57.5 -47t-78.5 -20v-34q49 -1 73.5 -22.5t24.5 -55.5
q0 -36 -29.5 -59.5t-87.5 -23.5q-56 0 -96 29z" />
    <glyph glyph-name="Tcaron" unicode="&#x164;" horiz-adv-x="577" 
d="M3 634v66h571v-66h-250v-634h-71v634h-250zM290 760l-182 102l29 43l155 -85l153 85l24 -42l-175 -103h-4z" />
    <glyph glyph-name="tcaron" unicode="&#x165;" horiz-adv-x="394" 
d="M1 458v62h104v117h65v-428q0 -85 24 -119.5t79 -34.5q51 0 86 44l40 -39q-21 -29 -58 -48t-80 -19q-156 0 -156 201v264h-104zM268 725h66q11 -24 11 -62q0 -44 -26 -82.5t-59 -59.5l-29 28q23 17 38.5 48t15.5 57q0 48 -17 71z" />
    <glyph glyph-name="Umacron" unicode="&#x16a;" horiz-adv-x="719" 
d="M651 700v-406q0 -78 -24 -137.5t-65 -94.5t-89.5 -52.5t-103.5 -17.5q-128 0 -214.5 81t-86.5 228v399h71v-388q0 -122 66 -188t164 -66q103 0 157 66t54 183v393h71zM210 795v58h297v-58h-297z" />
    <glyph glyph-name="umacron" unicode="&#x16b;" horiz-adv-x="583" 
d="M518 523v-523h-65v87q-29 -45 -76.5 -71t-106.5 -26q-107 0 -160 56.5t-53 173.5v303h65v-290q0 -181 153 -181q58 0 105.5 34.5t72.5 94.5v342h65zM162 647v59h261v-59h-261z" />
    <glyph glyph-name="Ubreve" unicode="&#x16c;" horiz-adv-x="719" 
d="M651 700v-406q0 -78 -24 -137.5t-65 -94.5t-89.5 -52.5t-103.5 -17.5q-128 0 -214.5 81t-86.5 228v399h71v-388q0 -122 66 -188t164 -66q103 0 157 66t54 183v393h71zM185 868l34 32q53 -63 143 -63q88 0 140 63l31 -29q-25 -40 -71.5 -67t-99.5 -27q-113 0 -177 91z" />
    <glyph glyph-name="ubreve" unicode="&#x16d;" horiz-adv-x="583" 
d="M518 523v-523h-65v87q-29 -45 -76.5 -71t-106.5 -26q-107 0 -160 56.5t-53 173.5v303h65v-290q0 -181 153 -181q58 0 105.5 34.5t72.5 94.5v342h65zM135 733l29 31q17 -21 52 -40t70 -19q76 0 122 58l24 -30q-61 -90 -147 -90q-50 0 -90 30t-60 60z" />
    <glyph glyph-name="Uring" unicode="&#x16e;" horiz-adv-x="719" 
d="M651 700v-406q0 -78 -24 -137.5t-65 -94.5t-89.5 -52.5t-103.5 -17.5q-128 0 -214.5 81t-86.5 228v399h71v-388q0 -122 66 -188t164 -66q103 0 157 66t54 183v393h71zM247 822q0 44 33 69.5t78 25.5q47 0 80 -25t33 -70q0 -43 -31.5 -70t-81.5 -27t-80.5 26t-30.5 71z
M299 822q0 -22 16 -36.5t44 -14.5q30 0 45 14t15 37q0 21 -16.5 34.5t-43.5 13.5q-28 0 -44 -13.5t-16 -34.5z" />
    <glyph glyph-name="uring" unicode="&#x16f;" horiz-adv-x="583" 
d="M518 523v-523h-65v87q-29 -45 -76.5 -71t-106.5 -26q-107 0 -160 56.5t-53 173.5v303h65v-290q0 -181 153 -181q58 0 105.5 34.5t72.5 94.5v342h65zM191 701q0 41 29 70t71 29t71.5 -29t29.5 -70t-29.5 -69.5t-71.5 -28.5t-71 28.5t-29 69.5zM241 701q0 -21 14 -35.5
t36 -14.5q23 0 37 13t14 37t-14 37.5t-37 13.5q-22 0 -36 -14.5t-14 -36.5z" />
    <glyph glyph-name="Uhungarumlaut" unicode="&#x170;" horiz-adv-x="719" 
d="M651 700v-406q0 -78 -24 -137.5t-65 -94.5t-89.5 -52.5t-103.5 -17.5q-128 0 -214.5 81t-86.5 228v399h71v-388q0 -122 66 -188t164 -66q103 0 157 66t54 183v393h71zM598 850l-162 -94l-26 37l154 106zM420 855l-156 -99l-25 36l142 107z" />
    <glyph glyph-name="uhungarumlaut" unicode="&#x171;" horiz-adv-x="583" 
d="M518 523v-523h-65v87q-29 -45 -76.5 -71t-106.5 -26q-107 0 -160 56.5t-53 173.5v303h65v-290q0 -181 153 -181q58 0 105.5 34.5t72.5 94.5v342h65zM489 777l-133 -163l-38 28l123 170zM342 779l-130 -165l-38 28l121 172z" />
    <glyph glyph-name="Uogonek" unicode="&#x172;" horiz-adv-x="719" 
d="M651 700v-406q0 -138 -70.5 -213t-175.5 -87q-29 -13 -48 -36t-19 -49q0 -57 64 -57q30 0 55 9l10 -46q-28 -15 -73 -15q-46 -2 -80.5 21t-34.5 70q0 61 66 102q-120 7 -198.5 87.5t-78.5 220.5v399h71v-388q0 -122 66 -188t164 -66q103 0 157 66t54 183v393h71z" />
    <glyph glyph-name="uogonek" unicode="&#x173;" horiz-adv-x="583" 
d="M508 -135l19 -47q-31 -18 -72 -18q-43 0 -75.5 25t-32.5 73q0 41 30.5 71t75.5 44v74q-29 -45 -76.5 -71t-106.5 -26q-107 0 -160 56.5t-53 173.5v303h65v-290q0 -181 153 -181q58 0 105.5 34.5t72.5 94.5v342h65v-523h-5q-32 0 -65.5 -26.5t-33.5 -63.5q0 -23 14 -38.5
t34 -15.5q27 0 46 9z" />
    <glyph glyph-name="Ydieresis" unicode="&#x178;" horiz-adv-x="627" 
d="M629 700l-281 -394v-306h-71v306l-279 394h85l231 -328l235 328h80zM153 824q0 17 13 28t33 11q16 0 29 -11t13 -28q0 -18 -13 -29t-29 -11q-20 0 -33 10.5t-13 29.5zM386 824q0 17 13 28t32 11q17 0 29.5 -11t12.5 -28q0 -19 -12.5 -29.5t-29.5 -10.5q-20 0 -32.5 10.5
t-12.5 29.5z" />
    <glyph glyph-name="Zacute" unicode="&#x179;" horiz-adv-x="629" 
d="M33 634v66h566v-48l-486 -586h496v-66h-595v48l484 586h-465zM476 853l-188 -91l-23 42l183 107z" />
    <glyph glyph-name="zacute" unicode="&#x17a;" horiz-adv-x="490" 
d="M37 458v62h433v-42l-351 -416h345v-62h-444v43l350 415h-333zM355 762l-118 -148l-42 30l110 155z" />
    <glyph glyph-name="Zdotaccent" unicode="&#x17b;" horiz-adv-x="629" 
d="M33 634v66h566v-48l-486 -586h496v-66h-595v48l484 586h-465zM271 826q0 18 13 30t31 12t31 -12t13 -30q0 -19 -13 -32t-31 -13t-31 13t-13 32z" />
    <glyph glyph-name="zdotaccent" unicode="&#x17c;" horiz-adv-x="490" 
d="M37 458v62h433v-42l-351 -416h345v-62h-444v43l350 415h-333zM201 690q0 17 13.5 29t31.5 12q17 0 30 -12t13 -29q0 -20 -13 -32.5t-30 -12.5q-19 0 -32 12.5t-13 32.5z" />
    <glyph glyph-name="Zcaron" unicode="&#x17d;" horiz-adv-x="629" 
d="M33 634v66h566v-48l-486 -586h496v-66h-595v48l484 586h-465zM316 760l-182 102l29 43l155 -85l153 85l24 -42l-175 -103h-4z" />
    <glyph glyph-name="zcaron" unicode="&#x17e;" horiz-adv-x="490" 
d="M37 458v62h433v-42l-351 -416h345v-62h-444v43l350 415h-333zM244 625l-143 124l36 41l108 -96l115 94l29 -40l-141 -123h-4z" />
    <glyph glyph-name="uni018F" unicode="&#x18f;" horiz-adv-x="753" 
d="M30 321q0 36 6 69h606q-11 117 -86 185.5t-199 68.5q-62 0 -126.5 -31.5t-103.5 -82.5l-48 45q47 63 125.5 98.5t159.5 35.5q162 0 256 -96t94 -260q0 -159 -94 -260.5t-255 -101.5q-68 0 -125 21t-95 55t-64.5 78t-38.5 88.5t-12 87.5zM642 324h-544q1 -113 74.5 -190.5
t198.5 -77.5q116 0 193 75t78 193z" />
    <glyph glyph-name="florin" unicode="&#x192;" horiz-adv-x="580" 
d="M350 506q-2 -9 -5.5 -27t-4.5 -27h161v-61h-172l-67 -377q-7 -40 -12.5 -64t-18.5 -58t-29.5 -53t-45.5 -33t-66 -14q-63 0 -98 33l20 52q31 -24 68 -24q47 0 72.5 30.5t36.5 92.5l74 415h-152v61h163l11 65q7 42 18.5 73.5t31.5 60t52.5 43.5t76.5 15q73 0 119 -38
l-24 -52q-37 29 -87 29q-52 0 -80 -33t-42 -109z" />
    <glyph glyph-name="uni01DD" unicode="&#x1dd;" horiz-adv-x="570" 
d="M97 385l-44 39q80 109 230 109q108 0 180.5 -75t72.5 -196q0 -119 -69.5 -195.5t-194.5 -76.5q-103 0 -170.5 67.5t-67.5 174.5q0 31 4 56h428q-2 86 -56 134.5t-130 48.5q-126 0 -183 -86zM278 51q81 0 133 50.5t57 125.5h-364q2 -77 49.5 -126.5t124.5 -49.5z" />
    <glyph glyph-name="Scommaaccent" unicode="&#x218;" horiz-adv-x="614" 
d="M496 183q0 45 -33 74t-82.5 41.5t-107 28.5t-107 33.5t-82.5 58.5t-33 102q0 79 70.5 133.5t184.5 54.5q172 0 249 -96l-45 -45q-79 75 -204 75q-29 0 -59 -6.5t-58.5 -19.5t-46.5 -37t-18 -56q0 -39 24.5 -65.5t64 -41t86.5 -26t94.5 -25.5t87 -33.5t64 -56t24.5 -87.5
q0 -87 -71 -142.5t-179 -55.5q-90 0 -167 38t-115 94l48 49q35 -47 98 -81t143 -34q69 0 119.5 34.5t50.5 91.5zM269 -86l54 37q35 -33 35 -75t-23 -76t-51 -51l-30 27q41 39 41 83q0 31 -26 55z" />
    <glyph glyph-name="scommaaccent" unicode="&#x219;" horiz-adv-x="497" 
d="M395 138q0 32 -35.5 53.5t-86.5 35t-102.5 29.5t-87 49t-35.5 82q0 67 54 106.5t146 39.5q61 0 117.5 -25t83.5 -64l-47 -42q-21 29 -66 49t-93 20q-126 0 -126 -79q0 -26 25.5 -45.5t64.5 -30t83.5 -25.5t83.5 -31t64.5 -47t25.5 -74q0 -73 -58 -111t-147 -38
q-76 0 -139.5 33t-90.5 89l52 38q24 -45 74.5 -71.5t107.5 -26.5q51 0 91.5 21t40.5 65zM212 -86l54 37q35 -35 35 -75q0 -42 -23 -76t-51 -51l-30 27q41 39 41 83q0 31 -26 55z" />
    <glyph glyph-name="Tcommaaccent" unicode="&#x21a;" horiz-adv-x="577" 
d="M3 634v66h571v-66h-250v-634h-71v634h-250zM251 -86l54 37q35 -33 35 -75t-23 -76t-51 -51l-30 27q41 39 41 83q0 31 -26 55z" />
    <glyph glyph-name="tcommaaccent" unicode="&#x21b;" horiz-adv-x="394" 
d="M1 458v62h104v117h65v-117h186v-62h-186v-249q0 -85 24 -119.5t79 -34.5q51 0 86 44l40 -39q-21 -29 -58 -48t-80 -19q-156 0 -156 201v264h-104zM189 -86l54 37q35 -35 35 -75q0 -42 -23 -76t-51 -51l-30 27q41 39 41 83q0 31 -26 55z" />
    <glyph glyph-name="uni0237" unicode="&#x237;" horiz-adv-x="240" 
d="M155 520v-525q0 -204 -155 -204q-46 0 -82 19t-53 51l52 34q24 -28 42 -35q16 -7 39 -7q45 0 68.5 38t23.5 107v522h65z" />
    <glyph glyph-name="uni0259" unicode="&#x259;" horiz-adv-x="570" 
d="M97 385l-44 39q80 109 230 109q108 0 180.5 -75t72.5 -196q0 -119 -69.5 -195.5t-194.5 -76.5q-103 0 -170.5 67.5t-67.5 174.5q0 31 4 56h428q-2 86 -56 134.5t-130 48.5q-126 0 -183 -86zM278 51q81 0 133 50.5t57 125.5h-364q2 -77 49.5 -126.5t124.5 -49.5z" />
    <glyph glyph-name="afii57929" unicode="&#x2bc;" horiz-adv-x="171" 
d="M83 696l54 34q34 -32 34 -84q0 -80 -85 -134l-29 29q51 35 51 88q0 37 -25 67z" />
    <glyph glyph-name="circumflex" unicode="&#x2c6;" horiz-adv-x="451" 
d="M308 781l143 -123l-36 -42l-109 97l-114 -94l-29 40l141 122h4z" />
    <glyph glyph-name="caron" unicode="&#x2c7;" horiz-adv-x="448" 
d="M303 625l-143 124l36 41l108 -96l115 94l29 -40l-141 -123h-4z" />
    <glyph glyph-name="breve" unicode="&#x2d8;" horiz-adv-x="448" 
d="M151 733l29 31q17 -21 52 -40t70 -19q76 0 122 58l24 -30q-61 -90 -147 -90q-50 0 -90 30t-60 60z" />
    <glyph glyph-name="dotaccent" unicode="&#x2d9;" horiz-adv-x="250" 
d="M75 690q0 17 13.5 29t31.5 12q17 0 30 -12t13 -29q0 -20 -13 -32.5t-30 -12.5q-19 0 -32 12.5t-13 32.5z" />
    <glyph glyph-name="ring" unicode="&#x2da;" horiz-adv-x="410" 
d="M209 701q0 41 29 70t71 29t71.5 -29t29.5 -70t-29.5 -69.5t-71.5 -28.5t-71 28.5t-29 69.5zM259 701q0 -21 14 -35.5t36 -14.5q23 0 37 13t14 37t-14 37.5t-37 13.5q-22 0 -36 -14.5t-14 -36.5z" />
    <glyph glyph-name="ogonek" unicode="&#x2db;" horiz-adv-x="368" 
d="M349 -135l19 -47q-31 -18 -72 -18q-43 0 -75.5 25t-32.5 73q0 55 54.5 90t111.5 35v-23q-32 0 -65.5 -26.5t-33.5 -63.5q0 -23 14 -38.5t34 -15.5q27 0 46 9z" />
    <glyph glyph-name="tilde" unicode="&#x2dc;" horiz-adv-x="460" 
d="M169 632l-31 32q59 59 107 59q24 0 63 -25t59 -25q35 0 67 35l26 -33q-44 -57 -99 -57q-29 0 -65.5 25t-53.5 25q-30 0 -73 -36z" />
    <glyph glyph-name="hungarumlaut" unicode="&#x2dd;" horiz-adv-x="527" 
d="M527 777l-133 -163l-38 28l123 170zM380 779l-130 -165l-38 28l121 172z" />
    <glyph glyph-name="gravecomb" unicode="&#x300;" horiz-adv-x="0" 
d="M-309 615l-121 145l50 39l110 -154z" />
    <glyph glyph-name="acutecomb" unicode="&#x301;" horiz-adv-x="0" 
d="M-190 762l-118 -148l-42 30l110 155z" />
    <glyph glyph-name="uni0394" unicode="&#x394;" horiz-adv-x="716" 
d="M30 0l303 708h43l310 -708h-656zM354 591l-224 -528h454q-86 197 -230 528z" />
    <glyph glyph-name="uni0394" unicode="&#x2206;" horiz-adv-x="716" 
d="M30 0l303 708h43l310 -708h-656zM354 591l-224 -528h454q-86 197 -230 528z" />
    <glyph glyph-name="uni03A9" unicode="&#x3a9;" horiz-adv-x="808" 
d="M87 0v66h131q-62 24 -109.5 102.5t-47.5 188.5q0 152 98.5 252t244.5 100q147 0 245.5 -100t98.5 -252q0 -110 -48.5 -185t-118.5 -106h139v-66h-266v66q87 24 154 100.5t67 187.5q0 121 -79 205t-192 84t-192 -82.5t-79 -206.5q0 -113 68 -193t153 -95v-66h-267z" />
    <glyph glyph-name="uni03A9" unicode="&#x2126;" horiz-adv-x="808" 
d="M87 0v66h131q-62 24 -109.5 102.5t-47.5 188.5q0 152 98.5 252t244.5 100q147 0 245.5 -100t98.5 -252q0 -110 -48.5 -185t-118.5 -106h139v-66h-266v66q87 24 154 100.5t67 187.5q0 121 -79 205t-192 84t-192 -82.5t-79 -206.5q0 -113 68 -193t153 -95v-66h-267z" />
    <glyph glyph-name="pi" unicode="&#x3c0;" horiz-adv-x="701" 
d="M47 458v62h615v-62h-124v-312q0 -48 13.5 -68.5t46.5 -20.5q38 0 73 27l12 -56q-40 -33 -95 -33q-115 0 -115 133v330h-236v-67q0 -157 -24 -244.5t-66.5 -118t-115.5 -30.5l-3 63q29 0 49.5 6.5t39.5 26t30 54t18 92t7 138.5v80h-125z" />
    <glyph glyph-name="afii10023" unicode="&#x401;" horiz-adv-x="638" 
d="M77 0v700h499v-66h-428v-245h400v-66h-400v-257h438v-66h-509zM168 824q0 17 13 28t33 11q16 0 29 -11t13 -28q0 -18 -13 -29t-29 -11q-20 0 -33 10.5t-13 29.5zM401 824q0 17 13 28t32 11q17 0 29.5 -11t12.5 -28q0 -19 -12.5 -29.5t-29.5 -10.5q-20 0 -32.5 10.5
t-12.5 29.5z" />
    <glyph glyph-name="afii10051" unicode="&#x402;" horiz-adv-x="734" 
d="M625 204q0 157 -147 160q-44 0 -88 -23t-67 -61v-280h-71v635h-249v65h569v-65h-249v-274q24 29 70 48.5t101 19.5q91 0 146 -54t55 -167q0 -111 -47 -164t-125 -53q-73 0 -105 51l45 44q23 -30 56 -30q49 0 77.5 36.5t28.5 111.5z" />
    <glyph glyph-name="afii10052" unicode="&#x403;" horiz-adv-x="566" 
d="M77 0v700h489v-66h-418v-634h-71zM478 853l-188 -91l-23 42l183 107z" />
    <glyph glyph-name="afii10053" unicode="&#x404;" horiz-adv-x="683" 
d="M477 390v-66h-368q9 -128 92 -198t208 -70q60 0 115 27.5t86 77.5l50 -34q-34 -65 -106.5 -100.5t-146.5 -35.5q-166 0 -267.5 98t-101.5 261q0 158 99.5 258.5t262.5 100.5q72 0 143 -29.5t108 -86.5l-53 -41q-29 44 -86 68t-117 24q-115 0 -193 -70.5t-92 -183.5h367z
" />
    <glyph glyph-name="afii10054" unicode="&#x405;" horiz-adv-x="614" 
d="M496 183q0 45 -33 74t-82.5 41.5t-107 28.5t-107 33.5t-82.5 58.5t-33 102q0 79 70.5 133.5t184.5 54.5q172 0 249 -96l-45 -45q-79 75 -204 75q-29 0 -59 -6.5t-58.5 -19.5t-46.5 -37t-18 -56q0 -39 24.5 -65.5t64 -41t86.5 -26t94.5 -25.5t87 -33.5t64 -56t24.5 -87.5
q0 -87 -71 -142.5t-179 -55.5q-90 0 -167 38t-115 94l48 49q35 -47 98 -81t143 -34q69 0 119.5 34.5t50.5 91.5z" />
    <glyph glyph-name="afii10055" unicode="&#x406;" horiz-adv-x="245" 
d="M87 0v700h71v-700h-71z" />
    <glyph glyph-name="afii10056" unicode="&#x407;" horiz-adv-x="245" 
d="M7 804q0 16 11.5 26.5t28.5 10.5q16 0 28 -11t12 -26q0 -17 -12 -28.5t-28 -11.5q-17 0 -28.5 11t-11.5 29zM157 804q0 16 12 26.5t29 10.5q16 0 27.5 -10.5t11.5 -26.5q0 -18 -11.5 -29t-27.5 -11q-18 0 -29.5 11t-11.5 29zM87 0v700h71v-700h-71z" />
    <glyph glyph-name="afii10057" unicode="&#x408;" horiz-adv-x="485" 
d="M409 700v-492q0 -104 -56.5 -160.5t-150.5 -56.5q-75 0 -127 37t-77 88l54 40q22 -42 60.5 -71t85.5 -29q68 2 104 39.5t36 124.5v480h71z" />
    <glyph glyph-name="afii10058" unicode="&#x409;" horiz-adv-x="1047" 
d="M756 367h-142v-301h133q199 0 199 157q0 70 -48.5 107t-141.5 37zM614 700v-267h144q131 0 196 -55t65 -155q0 -108 -72.5 -165.5t-200.5 -57.5h-203v634h-317v-122q0 -140 -16.5 -244t-45 -161t-60.5 -83.5t-68 -26.5q-28 0 -36 3v68q24 0 42.5 7t41 36t37 79
t24.5 143.5t10 222.5v144h459z" />
    <glyph glyph-name="afii10059" unicode="&#x40a;" horiz-adv-x="1046" 
d="M615 413h144q259 0 259 -200q0 -107 -70.5 -160t-199.5 -53h-204v347h-396v-347h-71v700h71v-287h396v287h71v-287zM758 347h-143v-281h134q196 0 196 146q0 135 -187 135z" />
    <glyph glyph-name="afii10060" unicode="&#x40b;" horiz-adv-x="730" 
d="M3 634v66h569v-66h-249v-270q73 65 167 65q93 0 147.5 -55.5t54.5 -171.5v-202h-71v190q0 173 -146 173q-41 0 -84.5 -22.5t-67.5 -58.5v-282h-71v634h-249z" />
    <glyph glyph-name="afii10061" unicode="&#x40c;" horiz-adv-x="650" 
d="M77 0v700h71v-358l381 358h93l-339 -319l365 -381h-97l-319 334l-84 -77v-257h-71zM473 853l-188 -91l-23 42l183 107z" />
    <glyph glyph-name="afii10062" unicode="&#x40e;" horiz-adv-x="674" 
d="M195 16l30 58q12 -6 25 -6q43 0 93 102l-343 530h83l297 -460l222 460h72l-265 -542q-38 -81 -75.5 -119.5t-87.5 -38.5q-31 0 -51 16zM179 878l60 10q31 -64 114 -64q41 0 71.5 16.5t39.5 47.5l59 -10q-12 -53 -57 -82.5t-112 -29.5q-71 0 -115 30t-60 82z" />
    <glyph glyph-name="afii10145" unicode="&#x40f;" horiz-adv-x="716" 
d="M77 0v700h71v-635h419v635h71v-700h-247v-154h-67v154h-247z" />
    <glyph glyph-name="afii10017" unicode="&#x410;" horiz-adv-x="678" 
d="M3 0l307 702h58l307 -702h-74l-85 192h-359l-82 -192h-72zM337 608l-151 -352h304z" />
    <glyph glyph-name="afii10018" unicode="&#x411;" horiz-adv-x="658" 
d="M568 700v-66h-420v-229h218q125 0 190 -50t65 -145q0 -106 -72 -158t-203 -52h-269v700h491zM359 339h-211v-273h205q195 0 195 143q0 130 -189 130z" />
    <glyph glyph-name="afii10019" unicode="&#x412;" horiz-adv-x="671" 
d="M77 0v700h273q136 0 192 -45.5t56 -126.5q0 -59 -28 -102t-80 -62q62 -9 98 -53t36 -114q0 -197 -277 -197h-270zM360 325h-212v-259h203q103 0 152 32.5t49 102.5q0 124 -192 124zM349 634h-201v-244h215q74 0 119 33t45 91q0 61 -40.5 90.5t-137.5 29.5z" />
    <glyph glyph-name="afii10020" unicode="&#x413;" horiz-adv-x="566" 
d="M77 0v700h489v-66h-418v-634h-71z" />
    <glyph glyph-name="afii10021" unicode="&#x414;" horiz-adv-x="735" 
d="M0 -131v196h74q103 154 103 505v130h457v-635h91v-196h-67v131h-591v-131h-67zM244 635v-78q0 -139 -24.5 -280.5t-69.5 -211.5h413v570h-319z" />
    <glyph glyph-name="afii10022" unicode="&#x415;" horiz-adv-x="638" 
d="M77 0v700h499v-66h-428v-245h400v-66h-400v-257h438v-66h-509z" />
    <glyph glyph-name="afii10024" unicode="&#x416;" horiz-adv-x="917" 
d="M321 381l-309 319h86l325 -331v331h70v-332l326 332h86l-312 -319l321 -381h-85l-290 343l-46 -47v-296h-70v299l-48 47l-289 -346h-83z" />
    <glyph glyph-name="afii10025" unicode="&#x417;" horiz-adv-x="643" 
d="M322 -9q-106 0 -187.5 39t-117.5 100l50 40q93 -113 255 -113q88 0 145 40t57 106q0 54 -52 88t-137 34h-128v66h122q69 0 119 36t50 91q0 61 -54.5 93t-136.5 32q-141 0 -221 -109l-54 39q100 136 283 136q113 0 184 -51t71 -143q0 -49 -32 -88.5t-83 -62.5
q68 -14 104.5 -59.5t36.5 -102.5q0 -98 -78 -154.5t-196 -56.5z" />
    <glyph glyph-name="afii10026" unicode="&#x418;" horiz-adv-x="738" 
d="M138 0h-61v700h71v-580l451 580h62v-700h-71v580z" />
    <glyph glyph-name="afii10027" unicode="&#x419;" horiz-adv-x="738" 
d="M138 0h-61v700h71v-580l451 580h62v-700h-71v580zM196 878l60 10q31 -64 114 -64q41 0 71.5 16.5t39.5 47.5l59 -10q-12 -53 -57 -82.5t-112 -29.5q-71 0 -115 30t-60 82z" />
    <glyph glyph-name="afii10028" unicode="&#x41a;" horiz-adv-x="650" 
d="M77 0v700h71v-358l381 358h93l-339 -319l365 -381h-97l-319 334l-84 -77v-257h-71z" />
    <glyph glyph-name="afii10029" unicode="&#x41b;" horiz-adv-x="704" 
d="M555 0v635h-329v-123q0 -140 -16.5 -244t-45 -161t-60.5 -83.5t-68 -26.5q-28 0 -36 3v68q24 0 42.5 7t41 36t37 79t24.5 143.5t10 222.5v144h471v-700h-71z" />
    <glyph glyph-name="afii10030" unicode="&#x41c;" horiz-adv-x="833" 
d="M77 0v700h68l278 -370l267 370h65v-700h-71v581l-257 -351h-16l-263 351v-581h-71z" />
    <glyph glyph-name="afii10031" unicode="&#x41d;" horiz-adv-x="746" 
d="M598 0v323h-450v-323h-71v700h71v-311h450v311h71v-700h-71z" />
    <glyph glyph-name="afii10032" unicode="&#x41e;" horiz-adv-x="783" 
d="M38 350q0 152 102.5 255.5t251.5 103.5t251 -102t102 -257q0 -154 -102 -256.5t-251 -102.5t-251.5 102t-102.5 257zM111 350q0 -125 82.5 -209t198.5 -84q120 0 200 83.5t80 209.5t-82 209.5t-198 83.5q-117 0 -199 -83.5t-82 -209.5z" />
    <glyph glyph-name="afii10033" unicode="&#x41f;" horiz-adv-x="741" 
d="M592 0v634h-444v-634h-71v700h586v-700h-71z" />
    <glyph glyph-name="afii10034" unicode="&#x420;" horiz-adv-x="651" 
d="M148 0h-71v700h252q284 0 284 -214q0 -93 -68.5 -154.5t-216.5 -61.5h-180v-270zM334 635h-186v-300h178q108 0 161 40.5t53 111.5q0 148 -206 148z" />
    <glyph glyph-name="afii10035" unicode="&#x421;" horiz-adv-x="686" 
d="M624 154l40 -46q-38 -52 -110 -84.5t-154 -32.5q-166 0 -264 97.5t-98 261.5q0 154 96.5 256.5t255.5 102.5q88 0 157 -32t106 -79l-43 -45q-47 45 -97.5 67t-124.5 22q-128 0 -202.5 -81t-74.5 -211q0 -132 80.5 -212t211.5 -80q136 0 221 96z" />
    <glyph glyph-name="afii10036" unicode="&#x422;" horiz-adv-x="577" 
d="M3 634v66h571v-66h-250v-634h-71v634h-250z" />
    <glyph glyph-name="afii10037" unicode="&#x423;" horiz-adv-x="674" 
d="M195 16l30 58q12 -6 25 -6q43 0 93 102l-343 530h83l297 -460l222 460h72l-265 -542q-38 -81 -75.5 -119.5t-87.5 -38.5q-31 0 -51 16z" />
    <glyph glyph-name="afii10038" unicode="&#x424;" horiz-adv-x="861" 
d="M395 -15v87h-5q-164 0 -262.5 78t-98.5 210q0 137 101.5 212.5t264.5 75.5v67h70v-67q99 0 180 -30t134 -97t53 -161q0 -131 -99 -209.5t-262 -78.5h-6v-87h-70zM468 584h-3v-448h6q131 0 209.5 59.5t78.5 164.5q0 104 -77 164t-214 60zM102 360q0 -103 78.5 -163.5
t210.5 -60.5h4v448q-126 0 -209.5 -57t-83.5 -167z" />
    <glyph glyph-name="afii10039" unicode="&#x425;" horiz-adv-x="645" 
d="M619 700l-253 -344l262 -356h-84l-222 300l-221 -300h-84l262 356l-251 344h83l212 -288l212 288h84z" />
    <glyph glyph-name="afii10040" unicode="&#x426;" horiz-adv-x="743" 
d="M77 0v700h71v-634h423v634h71v-634h91v-197h-67v131h-589z" />
    <glyph glyph-name="afii10041" unicode="&#x427;" horiz-adv-x="677" 
d="M600 700v-700h-71v309q-32 -20 -98.5 -36.5t-124.5 -16.5q-117 0 -187.5 55.5t-70.5 171.5v217h71v-191q0 -97 49.5 -142t152.5 -45q50 0 109.5 17t98.5 39v322h71z" />
    <glyph glyph-name="afii10042" unicode="&#x428;" horiz-adv-x="917" 
d="M77 0v700h71v-634h275v634h71v-634h275v634h71v-700h-763z" />
    <glyph glyph-name="afii10043" unicode="&#x429;" horiz-adv-x="941" 
d="M77 0v700h71v-634h275v634h71v-634h275v634h71v-634h91v-197h-67v131h-787z" />
    <glyph glyph-name="afii10044" unicode="&#x42a;" horiz-adv-x="747" 
d="M0 634v66h242v-269h197q139 0 209.5 -54t70.5 -154q0 -109 -75.5 -166t-213.5 -57h-259v634h-171zM437 365h-195v-299h192q212 0 212 157q0 70 -54.5 106t-154.5 36z" />
    <glyph glyph-name="afii10045" unicode="&#x42b;" horiz-adv-x="843" 
d="M695 0v700h71v-700h-71zM314 365h-166v-299h164q209 0 209 157q0 70 -53 106t-154 36zM148 700v-269h169q138 0 208.5 -54.5t70.5 -153.5q0 -109 -75.5 -166t-212.5 -57h-231v700h71z" />
    <glyph glyph-name="afii10046" unicode="&#x42c;" horiz-adv-x="653" 
d="M344 365h-196v-299h193q102 0 156.5 39.5t54.5 117.5q0 70 -54 106t-154 36zM148 700v-269h198q138 0 208.5 -54t70.5 -154q0 -109 -75.5 -166t-212.5 -57h-260v700h71z" />
    <glyph glyph-name="afii10047" unicode="&#x42d;" horiz-adv-x="692" 
d="M199 324v66h382q-11 117 -86 185.5t-198 68.5q-62 0 -126.5 -31.5t-104.5 -82.5l-48 45q47 63 125.5 98.5t159.5 35.5q162 0 256.5 -96t94.5 -260q0 -160 -96 -261t-263 -101q-81 0 -156 32t-121 97l49 40q36 -47 101 -75.5t132 -28.5q120 0 196.5 74.5t85.5 193.5h-383z
" />
    <glyph glyph-name="afii10048" unicode="&#x42e;" horiz-adv-x="987" 
d="M77 0v700h71v-311h131q15 138 107 229t227 91q148 0 242 -101t94 -258q0 -155 -95 -257t-241 -102q-141 0 -232.5 93.5t-102.5 240.5h-130v-325h-71zM350 350q0 -126 75 -209.5t188 -83.5q118 0 190.5 82.5t72.5 210.5t-74 210.5t-189 82.5q-114 0 -188.5 -83t-74.5 -210
z" />
    <glyph glyph-name="afii10049" unicode="&#x42f;" horiz-adv-x="676" 
d="M528 0v268h-209l-224 -268h-87l234 278q-87 15 -137.5 70t-50.5 137q0 94 69 154.5t202 60.5h274v-700h-71zM296 334h232v301h-212q-96 0 -141.5 -42t-45.5 -111q0 -60 44 -100.5t123 -47.5z" />
    <glyph glyph-name="afii10065" unicode="&#x430;" horiz-adv-x="533" 
d="M96 410l-35 50q36 33 91.5 53t109.5 20q105 0 159.5 -54.5t54.5 -155.5v-323h-65v86q-63 -93 -196 -93q-84 0 -136 42.5t-52 112.5q0 158 253 158q77 0 131 -16q0 88 -34 134.5t-123 46.5q-80 0 -158 -61zM233 53q66 0 113 37t65 79v62q-53 16 -122 16
q-95 0 -144.5 -21.5t-49.5 -73.5q0 -46 38.5 -72.5t99.5 -26.5z" />
    <glyph glyph-name="afii10066" unicode="&#x431;" horiz-adv-x="605" 
d="M504 743l10 -60q-39 -16 -146.5 -23.5t-146.5 -26.5q-123 -61 -123 -238q29 55 91 83.5t135 28.5q113 0 180 -67t67 -184q0 -112 -75 -189t-189 -77q-126 0 -199 81.5t-73 230.5q0 158 31 246.5t127 136.5q51 26 162.5 35.5t148.5 22.5zM104 290v-4q0 -109 56.5 -171.5
t145.5 -62.5q85 0 140.5 58t55.5 143q0 89 -51 140.5t-142 51.5q-81 0 -135.5 -46.5t-69.5 -108.5z" />
    <glyph glyph-name="afii10067" unicode="&#x432;" horiz-adv-x="543" 
d="M66 0v520h213q107 0 157.5 -29.5t50.5 -100.5q0 -79 -73 -116q92 -25 92 -129q0 -71 -55.5 -108t-162.5 -37h-222zM296 235h-165v-174h150q156 0 156 89q0 85 -141 85zM276 459h-145v-164h173q53 0 83.5 22.5t30.5 62.5q0 46 -37.5 62.5t-104.5 16.5z" />
    <glyph glyph-name="afii10068" unicode="&#x433;" horiz-adv-x="438" 
d="M66 0v520h371v-62h-306v-458h-65z" />
    <glyph glyph-name="afii10069" unicode="&#x434;" horiz-adv-x="594" 
d="M4 -130v192h56q72 104 72 347v111h381v-458h77v-192h-62v130h-462v-130h-62zM195 458v-61q0 -226 -63 -335h316v396h-253z" />
    <glyph glyph-name="afii10070" unicode="&#x435;" horiz-adv-x="570" 
d="M473 138l44 -39q-70 -109 -207 -109q-124 0 -200 74t-76 197q0 119 69.5 195.5t193.5 76.5q104 0 171.5 -65t67.5 -171q0 -20 -4 -56h-429q1 -88 59.5 -138.5t150.5 -50.5q48 0 92 24.5t68 61.5zM292 472q-81 0 -131 -47.5t-59 -123.5h364q-2 80 -48.5 125.5t-125.5 45.5
z" />
    <glyph glyph-name="afii10072" unicode="&#x436;" horiz-adv-x="752" 
d="M253 278l-241 242h83l247 -243v243h65v-243l248 243h82l-244 -240l256 -280h-84l-223 240l-35 -33v-207h-65v206l-42 30l-216 -236h-81z" />
    <glyph glyph-name="afii10073" unicode="&#x437;" horiz-adv-x="517" 
d="M258 -10q-166 0 -239 115l52 37q23 -40 70.5 -65.5t108.5 -25.5q69 0 115 28t46 75q0 81 -119 81h-126v60h120q42 0 73.5 24.5t31.5 63.5q0 43 -40.5 66t-104.5 23q-95 0 -160 -76l-49 32q25 41 82.5 73t135.5 32q96 0 151 -37.5t55 -100.5q0 -79 -70 -117
q50 -21 69.5 -50t19.5 -71q0 -78 -64 -122.5t-158 -44.5z" />
    <glyph glyph-name="afii10074" unicode="&#x438;" horiz-adv-x="603" 
d="M129 0h-63v520h65v-424l343 424h63v-520h-65v423z" />
    <glyph glyph-name="afii10075" unicode="&#x439;" horiz-adv-x="603" 
d="M129 0h-63v520h65v-424l343 424h63v-520h-65v423zM146 746h63q1 -41 27.5 -66t73.5 -25q44 0 70.5 25.5t27.5 65.5h61q-1 -64 -46 -104.5t-113 -40.5q-74 0 -118.5 39.5t-45.5 105.5z" />
    <glyph glyph-name="afii10076" unicode="&#x43a;" horiz-adv-x="525" 
d="M66 0v520h65v-251l288 251h89l-279 -241l295 -279h-90l-256 239l-47 -42v-197h-65z" />
    <glyph glyph-name="afii10077" unicode="&#x43b;" horiz-adv-x="582" 
d="M452 0v458h-259v-93q0 -108 -15.5 -185.5t-43 -117t-58.5 -55t-67 -10.5l-6 65q23 -3 42.5 7.5t39.5 39.5t31.5 95t11.5 163v153h389v-520h-65z" />
    <glyph glyph-name="afii10078" unicode="&#x43c;" horiz-adv-x="672" 
d="M66 0v520h61l213 -275l209 275h57v-520h-65v408l-201 -263l-209 263v-408h-65z" />
    <glyph glyph-name="afii10079" unicode="&#x43d;" horiz-adv-x="593" 
d="M462 0v234h-331v-234h-65v520h65v-224h331v224h65v-520h-65z" />
    <glyph glyph-name="afii10080" unicode="&#x43e;" horiz-adv-x="616" 
d="M34 261q0 119 76 195.5t198 76.5q121 0 197.5 -76.5t76.5 -195.5q0 -118 -76.5 -194.5t-197.5 -76.5t-197.5 76.5t-76.5 194.5zM103 261q0 -92 57.5 -150.5t147.5 -58.5t147.5 58t57.5 151q0 92 -58.5 151t-146.5 59q-89 0 -147 -58.5t-58 -151.5z" />
    <glyph glyph-name="afii10081" unicode="&#x43f;" horiz-adv-x="587" 
d="M456 0v458h-325v-458h-65v520h455v-520h-65z" />
    <glyph glyph-name="afii10082" unicode="&#x440;" horiz-adv-x="597" 
d="M66 -200v720h65v-77q57 90 185 90q113 0 179.5 -73t66.5 -190q0 -121 -72.5 -200.5t-186.5 -79.5q-111 0 -172 62v-252h-65zM310 471q-65 0 -113 -37t-66 -87v-202q51 -93 170 -93q83 0 137.5 60t54.5 153t-49.5 149.5t-133.5 56.5z" />
    <glyph glyph-name="afii10083" unicode="&#x441;" horiz-adv-x="528" 
d="M473 135l45 -36q-27 -51 -86 -80t-121 -29q-124 0 -200.5 74t-76.5 197q0 117 75.5 194.5t197.5 77.5q63 0 119 -27t83 -72l-51 -36q-55 73 -151 73q-88 0 -146 -59.5t-58 -150.5q0 -95 59 -152t154 -57q99 0 157 83z" />
    <glyph glyph-name="afii10084" unicode="&#x442;" horiz-adv-x="479" 
d="M1 458v62h477v-62h-207v-458h-65v458h-205z" />
    <glyph glyph-name="afii10085" unicode="&#x443;" horiz-adv-x="535" 
d="M92 -203l18 63q18 -6 25 -6q34 0 59.5 26t54.5 97l14 34l-266 509h78l222 -427l169 427h72l-210 -518q-51 -126 -92.5 -169t-99.5 -43q-24 0 -44 7z" />
    <glyph glyph-name="afii10086" unicode="&#x444;" horiz-adv-x="703" 
d="M318 -200v190h-6q-130 0 -204.5 75t-74.5 194q0 112 75 191t203 79h7v201h65v-201h8q125 0 201.5 -76.5t76.5 -193.5q0 -119 -74.5 -194t-205.5 -75h-6v-190h-65zM102 259q0 -94 54.5 -150.5t155.5 -56.5h6v415h-7q-98 0 -153.5 -58t-55.5 -150zM389 467h-6v-415h6
q102 0 156.5 56.5t54.5 150.5q0 88 -56.5 148t-154.5 60z" />
    <glyph glyph-name="afii10087" unicode="&#x445;" horiz-adv-x="522" 
d="M504 520l-198 -250l209 -270h-82l-173 225l-177 -225h-76l208 268l-197 252h81l164 -207l162 207h79z" />
    <glyph glyph-name="afii10088" unicode="&#x446;" horiz-adv-x="603" 
d="M66 0v520h65v-458h322v458h65v-458h76v-192h-62v130h-466z" />
    <glyph glyph-name="afii10089" unicode="&#x447;" horiz-adv-x="541" 
d="M475 520v-520h-65v229q-28 -29 -75 -46t-97 -17q-201 0 -201 207v147h65v-135q0 -157 146 -157q51 0 95.5 24t66.5 56v212h65z" />
    <glyph glyph-name="afii10090" unicode="&#x448;" horiz-adv-x="749" 
d="M66 0v520h65v-458h211v458h65v-458h211v458h65v-520h-617z" />
    <glyph glyph-name="afii10091" unicode="&#x449;" horiz-adv-x="768" 
d="M66 0v520h65v-458h211v458h65v-458h211v458h65v-458h76v-192h-61v130h-632z" />
    <glyph glyph-name="afii10092" unicode="&#x44a;" horiz-adv-x="591" 
d="M1 458v62h206v-169h148q208 0 208 -175q0 -77 -50.5 -126.5t-164.5 -49.5h-206v458h-141zM345 289h-138v-227h137q150 0 150 113q0 114 -149 114z" />
    <glyph glyph-name="afii10093" unicode="&#x44b;" horiz-adv-x="686" 
d="M66 0v520h65v-170h127q209 0 209 -174q0 -77 -51.5 -126.5t-166.5 -49.5h-183zM248 288h-117v-226h116q151 0 151 113t-150 113zM556 0v520h65v-520h-65z" />
    <glyph glyph-name="afii10094" unicode="&#x44c;" horiz-adv-x="517" 
d="M66 0v520h65v-170h149q209 0 209 -174q0 -77 -51.5 -126.5t-165.5 -49.5h-206zM269 288h-138v-226h137q152 0 152 113t-151 113z" />
    <glyph glyph-name="afii10095" unicode="&#x44d;" horiz-adv-x="540" 
d="M166 236v60h269q-10 85 -62 130t-134 45q-119 0 -178 -88l-51 35q37 53 96 84t130 31q125 0 197.5 -73.5t72.5 -198.5q0 -119 -71.5 -195t-194.5 -76q-158 0 -228 104l49 38q57 -80 175 -80q86 0 141 52t60 132h-271z" />
    <glyph glyph-name="afii10096" unicode="&#x44e;" horiz-adv-x="815" 
d="M66 0v520h65v-220h120q13 104 85.5 168.5t178.5 64.5q117 0 191 -76.5t74 -195.5q0 -118 -74 -194.5t-191 -76.5q-110 0 -183 68t-83 176h-118v-234h-65zM318 261q0 -91 56.5 -148t141.5 -57t140 56.5t55 148.5q0 91 -54.5 148.5t-140.5 57.5q-84 0 -141 -58t-57 -148z
" />
    <glyph glyph-name="afii10097" unicode="&#x44f;" horiz-adv-x="537" 
d="M265 520h206v-520h-65v193h-145l-169 -193h-82l177 202q-62 8 -102 51t-40 103q0 73 52.5 118.5t167.5 45.5zM114 355q0 -44 38 -72t102 -28h152v203h-151q-72 0 -106.5 -28t-34.5 -75z" />
    <glyph glyph-name="afii10071" unicode="&#x451;" horiz-adv-x="570" 
d="M473 138l44 -39q-70 -109 -207 -109q-124 0 -200 74t-76 197q0 119 69.5 195.5t193.5 76.5q104 0 171.5 -65t67.5 -171q0 -20 -4 -56h-429q1 -88 59.5 -138.5t150.5 -50.5q48 0 92 24.5t68 61.5zM292 472q-81 0 -131 -47.5t-59 -123.5h364q-2 80 -48.5 125.5t-125.5 45.5
zM133 689q0 17 12 28.5t28 11.5q17 0 30 -11.5t13 -28.5q0 -19 -13 -30.5t-30 -11.5q-16 0 -28 11.5t-12 30.5zM370 689q0 18 12.5 29t30.5 11q16 0 29 -11.5t13 -28.5q0 -19 -13 -30.5t-29 -11.5q-18 0 -30.5 11.5t-12.5 30.5z" />
    <glyph glyph-name="afii10099" unicode="&#x452;" horiz-adv-x="649" 
d="M0 520v61h142v149h65v-149h229v-61h-229v-199q70 86 184 86q220 0 220 -236q0 -256 -226 -374l-36 50q196 96 196 309q0 189 -169 189q-50 0 -101 -35.5t-68 -78.5v-231h-65v520h-142z" />
    <glyph glyph-name="afii10100" unicode="&#x453;" horiz-adv-x="438" 
d="M66 0v520h371v-62h-306v-458h-65zM376 762l-118 -148l-42 30l110 155z" />
    <glyph glyph-name="afii10101" unicode="&#x454;" horiz-adv-x="542" 
d="M368 296v-60h-264q7 -88 64.5 -136t144.5 -48q98 0 151 75l51 -32q-70 -105 -212 -105q-118 0 -193.5 76t-75.5 195q0 124 76 198t201 74q60 0 115 -24t87 -71l-48 -38q-48 71 -155 71q-84 0 -139.5 -45.5t-65.5 -129.5h263z" />
    <glyph glyph-name="afii10102" unicode="&#x455;" horiz-adv-x="497" 
d="M395 138q0 32 -35.5 53.5t-86.5 35t-102.5 29.5t-87 49t-35.5 82q0 67 54 106.5t146 39.5q61 0 117.5 -25t83.5 -64l-47 -42q-21 29 -66 49t-93 20q-126 0 -126 -79q0 -26 25.5 -45.5t64.5 -30t83.5 -25.5t83.5 -31t64.5 -47t25.5 -74q0 -73 -58 -111t-147 -38
q-76 0 -139.5 33t-90.5 89l52 38q24 -45 74.5 -71.5t107.5 -26.5q51 0 91.5 21t40.5 65z" />
    <glyph glyph-name="afii10103" unicode="&#x456;" horiz-adv-x="220" 
d="M77 0v520h65v-520h-65zM66 686q0 18 13.5 30t31.5 12q17 0 30 -12t13 -30q0 -19 -13 -32t-30 -13q-19 0 -32 13t-13 32z" />
    <glyph glyph-name="afii10104" unicode="&#x457;" horiz-adv-x="264" 
d="M98 0v520h65v-520h-65zM18 687q0 19 11.5 30.5t28.5 11.5q14 0 25.5 -11.5t11.5 -30.5q0 -21 -11.5 -32.5t-25.5 -11.5q-17 0 -28.5 12.5t-11.5 31.5zM172 687q0 20 10.5 31t26.5 11t26.5 -10.5t10.5 -31.5q0 -20 -10.5 -32t-26.5 -12q-15 0 -26 12.5t-11 31.5z" />
    <glyph glyph-name="afii10105" unicode="&#x458;" horiz-adv-x="222" 
d="M146 520v-525q0 -204 -155 -204q-46 0 -82 19t-53 51l52 34q24 -28 42 -35q16 -7 39 -7q45 0 68.5 38t23.5 107v522h65zM69 686q0 18 12.5 30t31.5 12q18 0 30.5 -12t12.5 -30q0 -19 -12.5 -32t-30.5 -13q-19 0 -31.5 13t-12.5 32z" />
    <glyph glyph-name="afii10106" unicode="&#x459;" horiz-adv-x="834" 
d="M448 458h-255v-93q0 -108 -15.5 -185.5t-43 -117t-58.5 -55t-67 -10.5l-6 65q23 -3 42.5 7.5t39.5 39.5t31.5 95t11.5 163v153h385v-171h85q208 0 208 -174q0 -77 -50.5 -126t-163.5 -49h-144v458zM590 285h-77v-222h76q80 0 114 28t34 83q0 111 -147 111z" />
    <glyph glyph-name="afii10107" unicode="&#x45a;" horiz-adv-x="848" 
d="M66 0v520h65v-206h331v206h65v-206h84q116 0 162.5 -40t46.5 -115q0 -159 -216 -159h-142v252h-331v-252h-65zM603 253h-76v-191h75q81 0 115 23.5t34 72.5q0 52 -34 73.5t-114 21.5z" />
    <glyph glyph-name="afii10108" unicode="&#x45b;" horiz-adv-x="648" 
d="M0 520v61h142v149h65v-149h229v-61h-229v-197q63 82 185 82q217 0 217 -235v-170h-65v161q0 93 -39 137.5t-129 44.5q-53 0 -101 -30.5t-68 -82.5v-230h-65v520h-142z" />
    <glyph glyph-name="afii10109" unicode="&#x45c;" horiz-adv-x="525" 
d="M66 0v520h65v-251l288 251h89l-279 -241l295 -279h-90l-256 239l-47 -42v-197h-65zM380 762l-118 -148l-42 30l110 155z" />
    <glyph glyph-name="afii10110" unicode="&#x45e;" horiz-adv-x="535" 
d="M92 -203l18 63q18 -6 25 -6q34 0 59.5 26t54.5 97l14 34l-266 509h78l222 -427l169 427h72l-210 -518q-51 -126 -92.5 -169t-99.5 -43q-24 0 -44 7zM118 746h63q1 -41 27.5 -66t73.5 -25q44 0 70.5 25.5t27.5 65.5h61q-1 -64 -46 -104.5t-113 -40.5q-74 0 -118.5 39.5
t-45.5 105.5z" />
    <glyph glyph-name="afii10193" unicode="&#x45f;" horiz-adv-x="619" 
d="M87 0v520h65v-458h319v458h65v-520h-194v-151h-62v151h-193z" />
    <glyph glyph-name="afii10146" unicode="&#x462;" horiz-adv-x="718" 
d="M1 527l-1 66h142v107h71v-107h244v-66h-244v-102h198q139 0 209 -53t70 -153q0 -109 -75 -164t-213 -55h-260v527h-141zM408 359h-195v-293h192q212 0 212 153q0 70 -54 105t-155 35z" />
    <glyph glyph-name="afii10194" unicode="&#x463;" horiz-adv-x="575" 
d="M379 463h-190v-119h149q209 0 209 -171q0 -76 -51 -124.5t-165 -48.5h-207v463h-123v57h123v210h65v-210h190v-57zM328 282h-139v-220h138q80 0 115.5 28t35.5 82q0 110 -150 110z" />
    <glyph glyph-name="afii10147" unicode="&#x472;" horiz-adv-x="783" 
d="M38 350q0 152 102.5 255.5t251.5 103.5t251 -102t102 -257q0 -154 -102 -256.5t-251 -102.5t-251.5 102t-102.5 257zM392 57q112 0 190 74t88 189h-558q10 -114 90.5 -188.5t189.5 -74.5zM392 643q-108 0 -187.5 -72.5t-91.5 -184.5h557q-13 112 -92 184.5t-186 72.5z
" />
    <glyph glyph-name="afii10195" unicode="&#x473;" horiz-adv-x="616" 
d="M34 261q0 119 76 195.5t198 76.5q121 0 197.5 -76.5t76.5 -195.5q0 -118 -76.5 -194.5t-197.5 -76.5t-197.5 76.5t-76.5 194.5zM308 52q84 0 140 50.5t64 133.5h-408q8 -82 64 -133t140 -51zM308 471q-81 0 -137 -49t-66 -129h406q-10 79 -66.5 128.5t-136.5 49.5z" />
    <glyph glyph-name="afii10148" unicode="&#x474;" horiz-adv-x="769" 
d="M638 542l-249 -542h-53l-338 700h75l292 -603l219 483q57 127 141 127q34 0 66 -23l-31 -52q-11 11 -33 11q-24 0 -44 -23.5t-45 -77.5z" />
    <glyph glyph-name="afii10196" unicode="&#x475;" horiz-adv-x="564" 
d="M448 368l-166 -368h-46l-245 520h76l194 -418l134 302q54 119 126 118q40 0 67 -28l-33 -48q-13 13 -32 13q-34 0 -75 -91z" />
    <glyph glyph-name="afii10050" unicode="&#x490;" horiz-adv-x="569" 
d="M77 0v700h423v129h66v-194h-418v-635h-71z" />
    <glyph glyph-name="afii10098" unicode="&#x491;" horiz-adv-x="437" 
d="M66 0v520h308v109h63v-171h-306v-458h-65z" />
    <glyph glyph-name="uni1E9E" unicode="&#x1e9e;" horiz-adv-x="655" 
d="M328 708q184 0 240 -142l-160 -181q110 -8 155.5 -61t44.5 -130q-1 -97 -60.5 -150t-167.5 -53q-75 0 -121 24l23 64q40 -21 102 -21q69 0 110 35t41 101q0 130 -181 130h-35v53l165 190q-19 32 -60 54t-95 22q-181 0 -181 -195v-448h-71v466q0 68 21 117t58.5 75
t79.5 38t92 12z" />
    <glyph glyph-name="uni2010" unicode="&#x2010;" horiz-adv-x="404" 
d="M82 243v61h240v-61h-240z" />
    <glyph glyph-name="uni2011" unicode="&#x2011;" horiz-adv-x="404" 
d="M82 243v61h240v-61h-240z" />
    <glyph glyph-name="figuredash" unicode="&#x2012;" horiz-adv-x="594" 
d="M92 327v58h410v-58h-410z" />
    <glyph glyph-name="endash" unicode="&#x2013;" horiz-adv-x="594" 
d="M92 243v58h410v-58h-410z" />
    <glyph glyph-name="emdash" unicode="&#x2014;" horiz-adv-x="795" 
d="M92 243v58h612v-58h-612z" />
    <glyph glyph-name="quoteleft" unicode="&#x2018;" horiz-adv-x="240" 
d="M158 547l-55 -34q-32 34 -32 79q0 91 84 139l29 -29q-49 -32 -49 -95q0 -33 23 -60z" />
    <glyph glyph-name="quoteright" unicode="&#x2019;" horiz-adv-x="240" 
d="M83 696l54 34q32 -34 32 -79q0 -92 -83 -139l-29 29q48 33 48 95q0 34 -22 60z" />
    <glyph glyph-name="quotesinglbase" unicode="&#x201a;" horiz-adv-x="240" 
d="M83 46l54 34q32 -34 32 -79q0 -92 -83 -139l-29 29q48 33 48 95q0 34 -22 60z" />
    <glyph glyph-name="quotedblleft" unicode="&#x201c;" horiz-adv-x="382" 
d="M158 547l-55 -34q-32 34 -32 79q0 91 84 139l29 -29q-49 -32 -49 -95q0 -33 23 -60zM299 547l-54 -34q-32 34 -32 79q0 91 84 139l29 -29q-49 -32 -49 -95q0 -31 22 -60z" />
    <glyph glyph-name="quotedblright" unicode="&#x201d;" horiz-adv-x="382" 
d="M225 696l54 34q32 -34 32 -79q0 -91 -84 -139l-29 29q49 32 49 95q0 31 -22 60zM83 696l54 34q32 -34 32 -79q0 -92 -83 -139l-29 29q48 33 48 95q0 34 -22 60z" />
    <glyph glyph-name="quotedblbase" unicode="&#x201e;" horiz-adv-x="382" 
d="M225 46l54 34q32 -34 32 -79q0 -91 -84 -139l-29 29q49 32 49 95q0 31 -22 60zM83 46l54 34q32 -34 32 -79q0 -92 -83 -139l-29 29q48 33 48 95q0 34 -22 60z" />
    <glyph glyph-name="dagger" unicode="&#x2020;" horiz-adv-x="435" 
d="M37 412v60h148v228h65v-228h149v-60h-149v-510h-65v510h-148z" />
    <glyph glyph-name="daggerdbl" unicode="&#x2021;" horiz-adv-x="437" 
d="M38 413v60h149v227h63v-227h149v-60h-149v-195h149v-60h-149v-256h-63v256h-149v60h149v195h-149z" />
    <glyph glyph-name="bullet" unicode="&#x2022;" horiz-adv-x="268" 
d="M38 362q0 25 19.5 43.5t45.5 18.5t45 -18.5t19 -43.5q0 -26 -19 -44.5t-45 -18.5t-45.5 18.5t-19.5 44.5z" />
    <glyph glyph-name="ellipsis" unicode="&#x2026;" horiz-adv-x="828" 
d="M663 43q0 16 13 28.5t33 12.5q18 0 30.5 -12.5t12.5 -28.5q0 -18 -12.5 -31.5t-30.5 -13.5q-20 0 -33 13t-13 32zM369 43q0 16 13.5 28.5t32.5 12.5q18 0 31 -12.5t13 -28.5q0 -18 -13 -31.5t-31 -13.5q-20 0 -33 13.5t-13 31.5zM76 43q0 16 13 28.5t33 12.5
q18 0 30.5 -13t12.5 -28q0 -18 -12.5 -31.5t-30.5 -13.5q-20 0 -33 13t-13 32z" />
    <glyph glyph-name="perthousand" unicode="&#x2030;" horiz-adv-x="1278" 
d="M47 537q0 73 50.5 119.5t126.5 46.5t126 -46.5t50 -119.5q0 -72 -50 -119t-126 -47t-126.5 47t-50.5 119zM111 537q0 -49 34 -80t79 -31q47 0 79.5 31t32.5 80t-33 80t-79 31t-79.5 -31t-33.5 -80zM152 18l519 695l43 -31l-519 -695zM462 162q0 73 50.5 119.5t126.5 46.5
q75 0 125.5 -46.5t50.5 -119.5q0 -72 -50.5 -119t-125.5 -47q-76 0 -126.5 47t-50.5 119zM526 162q0 -49 34 -80t79 -31q46 0 79 31t33 80t-33 80t-79 31t-79.5 -31t-33.5 -80zM878 162q0 73 50.5 119.5t126.5 46.5t126 -46.5t50 -119.5q0 -72 -50 -119t-126 -47t-126.5 47
t-50.5 119zM942 162q0 -49 34 -80t79 -31q47 0 79.5 31t32.5 80t-33 80t-79 31t-79.5 -31t-33.5 -80z" />
    <glyph glyph-name="guilsinglleft" unicode="&#x2039;" horiz-adv-x="334" 
d="M229 38l-181 212v5l182 209l44 -39l-150 -173l149 -173z" />
    <glyph glyph-name="guilsinglright" unicode="&#x203a;" horiz-adv-x="334" 
d="M274 250l-180 -212l-45 41l149 173l-150 173l44 39l182 -209v-5z" />
    <glyph glyph-name="fraction" unicode="&#x2044;" horiz-adv-x="292" 
d="M-150 31l547 675l45 -36l-544 -678z" />
    <glyph glyph-name="uni2070" unicode="&#x2070;" horiz-adv-x="480" 
d="M48 510q0 95 52 155t140 60t140 -60t52 -155t-51.5 -155t-139.5 -60t-140.5 60t-52.5 155zM109 510q0 -72 37.5 -116.5t94.5 -44.5q58 0 94 42.5t36 118.5t-36.5 118.5t-94.5 42.5q-59 0 -95 -42.5t-36 -118.5z" />
    <glyph glyph-name="uni2074" unicode="&#x2074;" horiz-adv-x="459" 
d="M291 300v94h-277v42l280 284h56v-272h89v-54h-89v-94h-59zM95 448h196v195z" />
    <glyph glyph-name="uni2075" unicode="&#x2075;" horiz-adv-x="413" 
d="M66 494l29 226h269v-55h-219l-19 -108q26 8 69 8q78 0 126 -37t48 -96q0 -61 -49 -99t-116 -38q-119 0 -167 77l42 36q16 -26 48 -42.5t69 -16.5q52 0 82 22.5t30 58.5q0 39 -36 60.5t-94 21.5q-56 0 -112 -18z" />
    <glyph glyph-name="uni2076" unicode="&#x2076;" horiz-adv-x="459" 
d="M48 499q0 109 59 167.5t151 58.5q86 0 131 -40l-26 -45q-44 31 -109 31q-60 0 -102.5 -39t-42.5 -110q55 57 141 57q84 0 127.5 -38.5t43.5 -103.5q0 -62 -52.5 -102t-123.5 -40q-90 0 -143.5 53.5t-53.5 150.5zM116 458q5 -45 38.5 -77t89.5 -32q49 0 82.5 23t33.5 65
q0 44 -32.5 66t-88.5 22q-47 0 -80.5 -20.5t-42.5 -46.5z" />
    <glyph glyph-name="uni2077" unicode="&#x2077;" horiz-adv-x="370" 
d="M20 664v56h330v-44l-219 -376h-67l215 364h-259z" />
    <glyph glyph-name="uni2078" unicode="&#x2078;" horiz-adv-x="462" 
d="M221 542h21q36 0 64.5 18.5t28.5 48.5q0 62 -105 62q-102 0 -102 -62q0 -30 28 -48.5t65 -18.5zM241 490h-18q-45 0 -78.5 -20.5t-33.5 -52.5q0 -31 33 -49.5t87 -18.5q120 0 120 68q0 35 -32 54t-78 19zM232 295q-78 0 -130 31.5t-52 84.5q0 38 25.5 67.5t62.5 38.5
q-71 27 -71 97q0 50 45.5 80.5t118.5 30.5q72 0 118.5 -30.5t46.5 -80.5q0 -63 -72 -94q88 -20 88 -107q0 -55 -51.5 -86.5t-128.5 -31.5z" />
    <glyph glyph-name="uni2079" unicode="&#x2079;" horiz-adv-x="459" 
d="M411 521q0 -109 -59 -167.5t-150 -58.5q-88 0 -131 40l25 45q44 -31 109 -31q61 0 103.5 39t42.5 110q-55 -57 -142 -57q-84 0 -127.5 38.5t-43.5 103.5q0 62 52.5 102t124.5 40q90 0 143 -53.5t53 -150.5zM344 562q-6 46 -39.5 77.5t-89.5 31.5q-48 0 -82 -23.5
t-34 -64.5q0 -44 32.5 -66t88.5 -22q47 0 80.5 20t43.5 47z" />
    <glyph glyph-name="uni207A" unicode="&#x207a;" horiz-adv-x="433" 
d="M58 488v55h128v128h58v-128h131v-55h-131v-128h-58v128h-128z" />
    <glyph glyph-name="uni207B" unicode="&#x207b;" horiz-adv-x="414" 
d="M58 489v55h298v-55h-298z" />
    <glyph glyph-name="uni207C" unicode="&#x207c;" horiz-adv-x="411" 
d="M58 551v54h295v-54h-295zM58 427v53h295v-53h-295z" />
    <glyph glyph-name="uni207D" unicode="&#x207d;" horiz-adv-x="247" 
d="M229 231l-36 -36q-76 56 -110.5 130t-34.5 147q0 165 146 278l33 -39q-118 -93 -118 -239q0 -135 120 -241z" />
    <glyph glyph-name="uni207E" unicode="&#x207e;" horiz-adv-x="249" 
d="M55 195l-36 38q120 90 120 239q0 147 -117 242l33 36q146 -113 146 -278q0 -73 -34.5 -147t-111.5 -130z" />
    <glyph glyph-name="uni2080" unicode="&#x2080;" horiz-adv-x="480" 
d="M48 110q0 95 52 155t140 60t140 -60t52 -155t-51.5 -155t-139.5 -60t-140.5 60t-52.5 155zM109 110q0 -72 37.5 -116.5t94.5 -44.5q58 0 94 42.5t36 118.5t-36.5 118.5t-94.5 42.5q-59 0 -95 -42.5t-36 -118.5z" />
    <glyph glyph-name="uni2081" unicode="&#x2081;" horiz-adv-x="293" 
d="M10 253l163 70h44v-423h-60v358l-127 -54z" />
    <glyph glyph-name="uni2082" unicode="&#x2082;" horiz-adv-x="415" 
d="M88 196l-46 25q18 46 63.5 75t101.5 29q69 0 109 -31.5t40 -88.5q0 -108 -149 -205l-70 -45h240v-55h-336v50l104 69q71 48 110.5 90t39.5 87q0 37 -23.5 56t-65.5 19q-77 0 -118 -75z" />
    <glyph glyph-name="uni2083" unicode="&#x2083;" horiz-adv-x="424" 
d="M95 212l-45 30q51 83 171 83q68 0 107 -28t39 -77q0 -74 -69 -98q82 -20 82 -104q0 -58 -48.5 -90.5t-118.5 -32.5q-54 0 -104 25t-72 68l47 32q15 -32 52 -51.5t77 -19.5q49 0 77 18.5t28 51.5q0 69 -102 69h-59v52h47q46 0 74 19t28 52q0 60 -87 60q-81 0 -124 -59z
" />
    <glyph glyph-name="uni2084" unicode="&#x2084;" horiz-adv-x="459" 
d="M291 -100v94h-277v42l280 284h56v-272h89v-54h-89v-94h-59zM95 48h196v195z" />
    <glyph glyph-name="uni2085" unicode="&#x2085;" horiz-adv-x="413" 
d="M66 94l29 226h269v-55h-219l-19 -108q26 8 69 8q78 0 126 -37t48 -96q0 -61 -49 -99t-116 -38q-119 0 -167 77l42 36q16 -26 48 -42.5t69 -16.5q52 0 82 22.5t30 58.5q0 39 -36 60.5t-94 21.5q-56 0 -112 -18z" />
    <glyph glyph-name="uni2086" unicode="&#x2086;" horiz-adv-x="459" 
d="M48 99q0 109 59 167.5t151 58.5q86 0 131 -40l-26 -45q-44 31 -109 31q-60 0 -102.5 -39t-42.5 -110q55 57 141 57q84 0 127.5 -38.5t43.5 -103.5q0 -62 -52.5 -102t-123.5 -40q-90 0 -143.5 53.5t-53.5 150.5zM116 58q5 -45 38.5 -77t89.5 -32q49 0 82.5 23t33.5 65
q0 44 -32.5 66t-88.5 22q-47 0 -80.5 -20.5t-42.5 -46.5z" />
    <glyph glyph-name="uni2087" unicode="&#x2087;" horiz-adv-x="370" 
d="M20 264v56h330v-44l-219 -376h-67l215 364h-259z" />
    <glyph glyph-name="uni2088" unicode="&#x2088;" horiz-adv-x="462" 
d="M221 142h21q36 0 64.5 18.5t28.5 48.5q0 62 -105 62q-102 0 -102 -62q0 -30 28 -48.5t65 -18.5zM241 90h-18q-45 0 -78.5 -20.5t-33.5 -52.5q0 -31 33 -49.5t87 -18.5q120 0 120 68q0 35 -32 54t-78 19zM232 -105q-78 0 -130 31.5t-52 84.5q0 38 25.5 67.5t62.5 38.5
q-71 27 -71 97q0 50 45.5 80.5t118.5 30.5q72 0 118.5 -30.5t46.5 -80.5q0 -63 -72 -94q88 -20 88 -107q0 -55 -51.5 -86.5t-128.5 -31.5z" />
    <glyph glyph-name="uni2089" unicode="&#x2089;" horiz-adv-x="459" 
d="M411 121q0 -109 -59 -167.5t-150 -58.5q-88 0 -131 40l25 45q44 -31 109 -31q61 0 103.5 39t42.5 110q-55 -57 -142 -57q-84 0 -127.5 38.5t-43.5 103.5q0 62 52.5 102t124.5 40q90 0 143 -53.5t53 -150.5zM344 162q-6 46 -39.5 77.5t-89.5 31.5q-48 0 -82 -23.5
t-34 -64.5q0 -44 32.5 -66t88.5 -22q47 0 80.5 20t43.5 47z" />
    <glyph glyph-name="uni208A" unicode="&#x208a;" horiz-adv-x="433" 
d="M58 88v55h128v128h58v-128h131v-55h-131v-128h-58v128h-128z" />
    <glyph glyph-name="uni208B" unicode="&#x208b;" horiz-adv-x="414" 
d="M58 89v55h298v-55h-298z" />
    <glyph glyph-name="uni208C" unicode="&#x208c;" horiz-adv-x="411" 
d="M58 151v54h295v-54h-295zM58 27v53h295v-53h-295z" />
    <glyph glyph-name="uni208D" unicode="&#x208d;" horiz-adv-x="247" 
d="M229 -169l-36 -36q-76 56 -110.5 130t-34.5 147q0 165 146 278l33 -39q-118 -93 -118 -239q0 -135 120 -241z" />
    <glyph glyph-name="uni208E" unicode="&#x208e;" horiz-adv-x="249" 
d="M55 -205l-36 38q120 90 120 239q0 147 -117 242l33 36q146 -113 146 -278q0 -73 -34.5 -147t-111.5 -130z" />
    <glyph glyph-name="Euro" unicode="&#x20ac;" horiz-adv-x="606" 
d="M19 408l23 60h74q32 108 117 174.5t206 66.5q87 0 146 -34l-25 -56q-52 27 -121 27q-88 0 -154 -48t-94 -130h330l-22 -60h-323q-5 -25 -5 -61q0 -10 2 -40h299l-20 -60h-266q25 -89 96 -141t169 -52q67 0 109 24l14 -59q-17 -12 -54 -20t-72 -8q-129 0 -218.5 68
t-118.5 188h-90l21 60h60q-3 21 -3 40q0 38 4 61h-84z" />
    <glyph glyph-name="uni20B4" unicode="&#x20b4;" horiz-adv-x="594" 
d="M67 412v58h311q31 40 31 81q0 40 -30.5 66.5t-78.5 26.5q-92 0 -148 -55l-33 52q66 68 184 68q81 0 131 -41.5t50 -106.5q0 -54 -32 -91h76v-58h-112q-28 -27 -87 -62.5t-67 -41.5h266v-58h-313q-44 -50 -44 -88q0 -51 40.5 -78.5t99.5 -27.5q48 0 90.5 20t69.5 56
l34 -46q-29 -45 -84 -70t-118 -25q-84 0 -141.5 43.5t-57.5 119.5q0 50 35 96h-72v58h110q32 27 93.5 64.5t64.5 39.5h-268z" />
    <glyph glyph-name="uni20BD" unicode="&#x20bd;" horiz-adv-x="595" 
d="M23 306v64h109v330q59 0 91 1q17 0 46 0.5t37 0.5q253 0 253 -195q0 -89 -63 -145t-190 -56h-105v-98h178v-63h-178v-145h-69v145h-109v63h109v98h-109zM312 638l-111 -1v-267h103q183 0 183 134t-175 134z" />
    <glyph glyph-name="afii61352" unicode="&#x2116;" horiz-adv-x="1159" 
d="M663 0h-55l-439 576v-576h-66v700h54l439 -578v578h67v-700zM739 493q0 73 49 119.5t124 46.5q76 0 125.5 -46.5t49.5 -119.5t-49.5 -119.5t-125.5 -46.5q-75 0 -124 46.5t-49 119.5zM800 493q0 -49 33.5 -80t78.5 -31q48 0 81 31t33 80t-33.5 80t-80.5 31q-46 0 -79 -31
t-33 -80zM769 203v61h287v-61h-287z" />
    <glyph glyph-name="trademark" unicode="&#x2122;" horiz-adv-x="831" 
d="M379 377v323h55l138 -158l131 158h55v-323h-64v233l-123 -149h-3l-125 149v-233h-64zM12 641v59h318v-59h-124v-264h-63v264h-131z" />
    <glyph glyph-name="partialdiff" unicode="&#x2202;" horiz-adv-x="579" 
d="M32 227q0 134 79.5 213.5t188.5 79.5q61 0 104.5 -32t60.5 -80q-2 122 -67 185t-199 56l9 60q160 1 240.5 -78t80.5 -262q0 -164 -71.5 -271t-195.5 -107q-99 0 -164.5 65.5t-65.5 170.5zM103 228q0 -83 47.5 -128.5t113.5 -45.5q80 0 132.5 70t59.5 170q-12 66 -53 115
t-110 49q-80 0 -135 -66.5t-55 -163.5z" />
    <glyph glyph-name="product" unicode="&#x220f;" horiz-adv-x="877" 
d="M693 -200v835h-509v-835h-69v900h647v-900h-69z" />
    <glyph glyph-name="summation" unicode="&#x2211;" horiz-adv-x="625" 
d="M347 250l-307 404v46h545v-65h-449l293 -385l-297 -385h453v-65h-545v46z" />
    <glyph glyph-name="minus" unicode="&#x2212;" horiz-adv-x="582" 
d="M65 331v58h453v-58h-453z" />
    <glyph glyph-name="uni2215" unicode="&#x2215;" horiz-adv-x="292" 
d="M-150 31l547 675l45 -36l-544 -678z" />
    <glyph glyph-name="radical" unicode="&#x221a;" horiz-adv-x="590" 
d="M2 392v63h154l171 -344l130 589h272v-61h-217l-148 -645h-49l-203 398h-110z" />
    <glyph glyph-name="infinity" unicode="&#x221e;" horiz-adv-x="728" 
d="M535 192q-53 0 -93 27t-79 75q-59 -78 -117 -95q-71 -22 -134.5 21.5t-63.5 120.5q0 61 44 106t113 45q46 0 82.5 -26.5t75.5 -75.5q57 77 123 95q78 23 136 -20.5t58 -127.5q0 -57 -38.5 -101t-106.5 -44zM526 434q-39 0 -68 -23t-59 -67q36 -46 65.5 -70t66.5 -24
q40 0 63 27.5t23 60.5q0 41 -24 68.5t-67 27.5zM206 250q37 0 64.5 23t57.5 66q-35 47 -62.5 71t-58.5 24q-42 0 -69 -27t-27 -66q0 -42 30 -66.5t65 -24.5z" />
    <glyph glyph-name="integral" unicode="&#x222b;" horiz-adv-x="336" 
d="M104 548q0 100 50 145t119 45q40 0 73.5 -17t51.5 -44l-41 -39q-28 38 -81 38q-106 0 -106 -137v-555q0 -100 -50 -145t-119 -45q-39 0 -72.5 17t-52.5 44l41 40q29 -39 81 -39q106 0 106 137v555z" />
    <glyph glyph-name="approxequal" unicode="&#x2248;" horiz-adv-x="585" 
d="M83 401l-30 43q64 65 130 65q40 0 112 -34.5t113 -34.5q49 0 97 46l27 -44q-63 -58 -123 -58q-41 0 -112 34t-111 34q-50 0 -103 -51zM83 225l-30 43q64 65 130 65q41 0 115 -34.5t110 -34.5q50 0 97 47l27 -44q-62 -59 -123 -59q-41 0 -112 34t-111 34q-50 0 -103 -51z
" />
    <glyph glyph-name="notequal" unicode="&#x2260;" horiz-adv-x="582" 
d="M67 418v58h233l87 235l55 -19l-81 -216h156v-58h-177l-44 -117h221v-58h-242l-95 -255l-55 21l88 234h-146v58h166l44 117h-210z" />
    <glyph glyph-name="lessequal" unicode="&#x2264;" horiz-adv-x="565" 
d="M59 261v64l413 -257v-67zM472 178l-413 260v27l413 257v-72l-322 -199l322 -201v-72z" />
    <glyph glyph-name="greaterequal" unicode="&#x2265;" horiz-adv-x="565" 
d="M472 325v-64l-413 -260v67zM472 438l-413 -260v72l322 201l-322 199v72l413 -257v-27z" />
    <glyph glyph-name="lozenge" unicode="&#x25ca;" horiz-adv-x="465" 
d="M204 -7l-167 257l168 270h56l167 -259l-168 -268h-56zM105 251l127 -197l128 207l-128 198z" />
    <glyph glyph-name="uniF350" unicode="&#xf350;" horiz-adv-x="580" 
d="M2 0l261 561h54l261 -561h-71l-69 146h-300l-68 -146h-68zM288 468l-124 -263h249z" />
    <glyph glyph-name="uniF351" unicode="&#xf351;" horiz-adv-x="560" 
d="M485 560v-63h-353v-168h181q106 0 161 -41t55 -118q0 -86 -61.5 -128t-173.5 -42h-229v560h420zM305 266h-173v-203h168q159 0 159 106q0 97 -154 97z" />
    <glyph glyph-name="uniF352" unicode="&#xf352;" horiz-adv-x="571" 
d="M65 0v560h235q115 0 162.5 -36t47.5 -102q0 -97 -88 -130q51 -9 80.5 -43.5t29.5 -89.5q0 -159 -235 -159h-232zM306 255h-174v-192h166q85 0 125.5 24t40.5 76q0 92 -158 92zM297 497h-165v-180h177q61 0 97 24t36 66q0 46 -33 68t-112 22z" />
    <glyph glyph-name="uniF353" unicode="&#xf353;" horiz-adv-x="483" 
d="M65 0v560h418v-63h-351v-497h-67z" />
    <glyph glyph-name="uniF354" unicode="&#xf354;" horiz-adv-x="626" 
d="M0 -103v165h63q29 43 56.5 143.5t27.5 255.5v99h394v-498h77v-165h-64v103h-490v-103h-64zM211 498v-81q0 -86 -22 -192t-54 -163h339v436h-263z" />
    <glyph glyph-name="uniF355" unicode="&#xf355;" horiz-adv-x="543" 
d="M65 0v560h426v-63h-359v-181h336v-63h-336v-190h368v-63h-435z" />
    <glyph glyph-name="uniF356" unicode="&#xf356;" horiz-adv-x="783" 
d="M268 305l-259 255h82l267 -259v259h67v-259l268 259h82l-262 -255l269 -305h-84l-233 262l-40 -36v-226h-67v227l-44 36l-233 -263h-79z" />
    <glyph glyph-name="uniF357" unicode="&#xf357;" horiz-adv-x="547" 
d="M275 -7q-92 0 -160.5 31t-101.5 82l49 38q77 -89 212 -89q75 0 121 30t46 79q0 41 -42.5 66t-114.5 25h-108v63h102q58 0 99.5 26.5t41.5 67.5q0 45 -44 69t-112 24q-62 0 -109.5 -24t-75.5 -60l-52 37q85 109 243 109q96 0 157 -41t61 -115q0 -38 -25.5 -69.5
t-67.5 -50.5q55 -12 85 -47t30 -80q0 -80 -65.5 -125.5t-168.5 -45.5z" />
    <glyph glyph-name="uniF358" unicode="&#xf358;" horiz-adv-x="628" 
d="M122 0h-57v560h67v-447l373 447h58v-560h-67v447z" />
    <glyph glyph-name="uniF359" unicode="&#xf359;" horiz-adv-x="628" 
d="M122 0h-57v560h67v-447l373 447h58v-560h-67v447zM153 751h63q1 -41 27.5 -66t73.5 -25q44 0 70.5 25.5t27.5 65.5h61q-1 -64 -46 -104.5t-113 -40.5q-74 0 -118 39.5t-46 105.5z" />
    <glyph glyph-name="uniF35A" unicode="&#xf35a;" horiz-adv-x="557" 
d="M65 0v560h67v-276l314 276h89l-285 -254l306 -306h-92l-264 261l-68 -58v-203h-67z" />
    <glyph glyph-name="uniF35B" unicode="&#xf35b;" 
d="M468 0v498h-270v-68q0 -121 -15 -209.5t-40 -135t-52.5 -67.5t-57.5 -21q-7 0 -19 1.5t-14 1.5v65q16 -4 31.5 1t34 27.5t32.5 62t23.5 113.5t9.5 173v118h404v-560h-67z" />
    <glyph glyph-name="uniF35C" unicode="&#xf35c;" horiz-adv-x="709" 
d="M65 0v560h63l232 -286l223 286h61v-560h-67v449l-212 -270h-16l-217 269v-448h-67z" />
    <glyph glyph-name="uniF35D" unicode="&#xf35d;" horiz-adv-x="634" 
d="M503 0v253h-371v-253h-67v560h67v-244h371v244h67v-560h-67z" />
    <glyph glyph-name="uniF35E" unicode="&#xf35e;" horiz-adv-x="666" 
d="M32 280q0 121 87 204t215 83q127 0 213.5 -81.5t86.5 -205.5q0 -123 -87 -205t-213 -82q-127 0 -214.5 81.5t-87.5 205.5zM102 280q0 -96 67.5 -159.5t164.5 -63.5q98 0 164 63.5t66 159.5q0 97 -67 160t-163 63q-97 0 -164.5 -63t-67.5 -160z" />
    <glyph glyph-name="uniF35F" unicode="&#xf35f;" horiz-adv-x="630" 
d="M498 0v497h-366v-497h-67v560h500v-560h-67z" />
    <glyph glyph-name="uniF360" unicode="&#xf360;" horiz-adv-x="554" 
d="M132 0h-67v560h215q242 0 242 -174q0 -76 -58 -126t-184 -50h-148v-210zM284 498h-152v-226h146q88 0 131 30.5t43 84.5q0 111 -168 111z" />
    <glyph glyph-name="uniF361" unicode="&#xf361;" horiz-adv-x="585" 
d="M528 133l38 -43q-32 -44 -93.5 -70.5t-132.5 -26.5q-141 0 -224.5 78t-83.5 209q0 123 82.5 205t217.5 82q76 0 135 -26t90 -65l-42 -43q-75 70 -183 70q-106 0 -168 -61.5t-62 -161.5t66.5 -161.5t174.5 -61.5q114 0 185 76z" />
    <glyph glyph-name="uniF362" unicode="&#xf362;" horiz-adv-x="494" 
d="M3 497v63h488v-63h-211v-497h-67v497h-210z" />
    <glyph glyph-name="uniF363" unicode="&#xf363;" horiz-adv-x="578" 
d="M161 12l27 57q12 -7 27 -7q36 0 66 59l9 17l-290 422h80l245 -354l184 354h68l-223 -433q-34 -65 -65.5 -96t-71.5 -31q-36 0 -56 12z" />
    <glyph glyph-name="uniF364" unicode="&#xf364;" horiz-adv-x="743" 
d="M337 -12v69h-4q-141 0 -225 62.5t-84 168.5q0 110 86.5 170.5t226.5 60.5v53h68v-53q63 0 119 -14.5t100 -42t69.5 -72.5t25.5 -102q0 -105 -85 -168t-225 -63h-4v-69h-68zM406 457h-1v-338h4q110 0 175 44t65 125q0 79 -63.5 124t-179.5 45zM94 288q0 -77 64.5 -123
t175.5 -46h3v338q-106 0 -174.5 -42.5t-68.5 -126.5z" />
    <glyph glyph-name="uniF365" unicode="&#xf365;" horiz-adv-x="553" 
d="M533 560l-215 -275l223 -285h-81l-184 232l-182 -232h-81l223 285l-214 275h80l175 -222l176 222h80z" />
    <glyph glyph-name="uniF366" unicode="&#xf366;" horiz-adv-x="632" 
d="M65 0v560h67v-497h348v497h67v-497h76v-166h-64v103h-494z" />
    <glyph glyph-name="uniF367" unicode="&#xf367;" horiz-adv-x="578" 
d="M514 560v-560h-67v242q-28 -16 -82.5 -28.5t-103.5 -12.5q-100 0 -160.5 45t-60.5 138v176h67v-146q0 -78 41.5 -114t126.5 -36q42 0 93 13.5t79 30.5v252h67z" />
    <glyph glyph-name="uniF368" unicode="&#xf368;" horiz-adv-x="781" 
d="M65 0v560h67v-497h225v497h67v-497h225v497h67v-560h-651z" />
    <glyph glyph-name="uniF369" unicode="&#xf369;" horiz-adv-x="800" 
d="M65 0v560h67v-497h225v497h67v-497h225v497h67v-497h76v-166h-64v103h-663z" />
    <glyph glyph-name="uniF36A" unicode="&#xf36a;" horiz-adv-x="635" 
d="M0 498v62h212v-211h161q119 0 179 -43.5t60 -125.5q0 -89 -64.5 -134.5t-182.5 -45.5h-220v498h-145zM371 286h-159v-223h157q173 0 173 117q0 106 -171 106z" />
    <glyph glyph-name="uniF36B" unicode="&#xf36b;" horiz-adv-x="720" 
d="M588 0v560h67v-560h-67zM268 286h-136v-223h134q172 0 172 117q0 106 -170 106zM132 560v-211h138q118 0 178 -44.5t60 -124.5q0 -88 -64.5 -134t-181.5 -46h-197v560h67z" />
    <glyph glyph-name="uniF36C" unicode="&#xf36c;" horiz-adv-x="556" 
d="M293 286h-161v-223h158q173 0 173 117q0 106 -170 106zM132 560v-211h163q119 0 178.5 -43.5t59.5 -125.5q0 -88 -64.5 -134t-181.5 -46h-222v560h67z" />
    <glyph glyph-name="uniF36D" unicode="&#xf36d;" horiz-adv-x="590" 
d="M169 254v63h319q-10 87 -71.5 137.5t-162.5 50.5q-53 0 -107 -23.5t-87 -63.5l-46 42q41 51 108 79t137 28q138 0 218.5 -77t80.5 -208q0 -128 -82 -208.5t-224 -80.5q-70 0 -134.5 25.5t-104.5 79.5l47 39q30 -38 84.5 -60t111.5 -22q99 0 161.5 55.5t70.5 143.5h-319z
" />
    <glyph glyph-name="uniF36E" unicode="&#xf36e;" horiz-adv-x="841" 
d="M65 0v560h67v-244h105q13 109 91.5 180t193.5 71q127 0 207 -80.5t80 -206.5q0 -124 -81.5 -205.5t-205.5 -81.5q-120 0 -197.5 72.5t-88.5 189.5h-104v-255h-67zM305 280q0 -97 61.5 -160.5t155.5 -63.5q98 0 157.5 63t59.5 161t-61 161t-156 63t-156 -63t-61 -161z" />
    <glyph glyph-name="uniF36F" unicode="&#xf36f;" horiz-adv-x="576" 
d="M444 0v210h-169l-186 -210h-83l197 220q-74 14 -116 56.5t-42 103.5q0 80 59 130t174 50h233v-560h-67zM254 272h190v226h-174q-79 0 -117 -32t-38 -85q0 -43 37 -73.5t102 -35.5z" />
    <glyph glyph-name="uniF371" unicode="&#xf371;" horiz-adv-x="543" 
d="M138 646q0 16 12.5 26.5t30.5 10.5q14 0 26.5 -11t12.5 -26q0 -16 -12 -26t-27 -10q-19 0 -31 9.5t-12 26.5zM338 646q0 16 12 26.5t29 10.5q16 0 27.5 -10.5t11.5 -26.5t-11.5 -26t-27.5 -10q-18 0 -29.5 9.5t-11.5 26.5zM65 0v560h426v-63h-359v-181h336v-63h-336v-190
h368v-63h-435z" />
    <glyph glyph-name="uniF372" unicode="&#xf372;" horiz-adv-x="483" 
d="M65 0v560h418v-63h-351v-497h-67zM396 765l-119 -147l-42 29l111 155z" />
    <glyph glyph-name="uniF373" unicode="&#xf373;" horiz-adv-x="886" 
d="M637 287h-117v-224h110q163 0 163 117q0 107 -156 107zM520 560v-210h119q113 0 168.5 -44.5t55.5 -125.5q0 -88 -62.5 -134t-171.5 -46h-176v497h-255v-67q0 -121 -15 -209.5t-40 -135t-52.5 -67.5t-57.5 -21q-7 0 -19 1.5t-14 1.5v65q16 -4 31.5 1t34 27.5t32.5 62
t23.5 113.5t9.5 173v118h389z" />
    <glyph glyph-name="uniF374" unicode="&#xf374;" horiz-adv-x="889" 
d="M526 334h119q221 0 221 -162q0 -87 -60.5 -129.5t-170.5 -42.5h-176v271h-327v-271h-67v560h67v-226h327v226h67v-226zM643 271h-117v-208h110q80 0 120 25t40 84q0 99 -153 99z" />
    <glyph glyph-name="uniF375" unicode="&#xf375;" horiz-adv-x="557" 
d="M65 0v560h67v-276l314 276h89l-285 -254l306 -306h-92l-264 261l-68 -58v-203h-67zM393 765l-119 -147l-42 29l111 155z" />
    <glyph glyph-name="uniF376" unicode="&#xf376;" horiz-adv-x="622" 
d="M2 497v63h486v-63h-210v-198q64 48 138 48q80 0 126.5 -45t46.5 -138v-164h-67v153q0 131 -119 131q-34 0 -69 -16.5t-56 -43.5v-224h-67v497h-209z" />
    <glyph glyph-name="uniF377" unicode="&#xf377;" horiz-adv-x="611" 
d="M65 0v560h67v-498h347v498h67v-560h-209v-121h-64v121h-208z" />
    <glyph glyph-name="uniF378" unicode="&#xf378;" horiz-adv-x="413" 
d="M349 560v-392q0 -84 -47.5 -129.5t-128.5 -45.5q-65 0 -109.5 30t-65.5 71l50 38q47 -78 121 -77q56 1 84.5 29.5t28.5 95.5v380h67z" />
    <glyph glyph-name="uniF379" unicode="&#xf379;" horiz-adv-x="485" 
d="M65 0v560h355v101h63v-163h-351v-498h-67z" />
    <glyph glyph-name="uniF37A" unicode="&#xf37a;" horiz-adv-x="582" 
d="M407 317v-63h-307q9 -95 77 -147t169 -52q51 0 97 22.5t72 60.5l48 -31q-28 -55 -90.5 -84.5t-126.5 -29.5q-141 0 -227.5 78.5t-86.5 208.5q0 126 84.5 206.5t223.5 80.5q61 0 122.5 -24t92.5 -71l-50 -38q-24 34 -71.5 52.5t-97.5 18.5q-95 0 -159 -52t-76 -136h306z
" />
    <glyph glyph-name="uniF37B" unicode="&#xf37b;" horiz-adv-x="212" 
d="M73 0v560h67v-560h-67z" />
    <glyph glyph-name="uniF37C" unicode="&#xf37c;" horiz-adv-x="212" 
d="M3 644q0 14 11 23.5t27 9.5q15 0 26 -9.5t11 -23.5q0 -16 -11 -26.5t-26 -10.5q-17 0 -27.5 10.5t-10.5 26.5zM134 644q0 14 11 23.5t27 9.5q15 0 26 -9.5t11 -23.5q0 -16 -11 -26.5t-26 -10.5q-17 0 -27.5 10.5t-10.5 26.5zM73 0v560h67v-560h-67z" />
    <glyph glyph-name="uniF37E" unicode="&#xf37e;" horiz-adv-x="578" 
d="M161 12l27 57q12 -7 27 -7q36 0 66 59l9 17l-290 422h80l245 -354l184 354h68l-223 -433q-34 -65 -65.5 -96t-71.5 -31q-36 0 -56 12zM145 751h63q1 -41 27.5 -66t73.5 -25q44 0 70.5 25.5t27.5 65.5h61q-1 -64 -46 -104.5t-113 -40.5q-74 0 -118 39.5t-46 105.5z" />
    <glyph glyph-name="uniF37F" unicode="&#xf37f;" horiz-adv-x="521" 
d="M416 148q0 39 -38.5 62t-93.5 35t-110 26.5t-93.5 50t-38.5 92.5q0 64 60.5 108.5t157.5 44.5q148 0 214 -80l-43 -43q-65 60 -173 60q-54 0 -100 -22t-46 -65q0 -39 38.5 -62.5t93 -35.5t109.5 -27t93.5 -49t38.5 -90q0 -71 -60 -115.5t-153 -44.5q-76 0 -143 31t-99 76
l45 47q30 -39 83.5 -65t121.5 -26q55 0 95.5 25t40.5 67z" />
    <glyph glyph-name="uniF381" unicode="&#xf381;" horiz-adv-x="610" 
d="M1 416l-1 63h119v81h67v-81h205v-63h-205v-76h163q238 0 238 -165q0 -88 -63.5 -131.5t-182.5 -43.5h-222v416h-118zM346 277h-160v-214h158q173 0 173 112q0 102 -171 102z" />
    <glyph glyph-name="uniF389" unicode="&#xf389;" horiz-adv-x="666" 
d="M32 280q0 121 87 204t215 83q127 0 213.5 -81.5t86.5 -205.5q0 -123 -87 -205t-213 -82q-127 0 -214.5 81.5t-87.5 205.5zM334 57q90 0 154.5 54.5t74.5 139.5h-460q11 -85 76.5 -139.5t154.5 -54.5zM334 503q-88 0 -152.5 -53t-77.5 -136h458q-12 83 -77 136t-151 53z
" />
    <glyph glyph-name="uniF38A" unicode="&#xf38a;" horiz-adv-x="655" 
d="M544 427l-210 -427h-49l-287 560h72l242 -466l179 367q50 105 124 105q30 0 59 -20l-29 -51q-9 8 -28 8q-20 0 -36.5 -17.5t-36.5 -58.5z" />
    <glyph glyph-name="uniF393" unicode="&#xf393;" horiz-adv-x="627" 
d="M527 163q0 121 -120 122q-37 1 -73 -16.5t-56 -46.5v-222h-67v498h-209v62h486v-62h-210v-201q50 50 143 50q78 0 125.5 -43.5t47.5 -134.5q0 -90 -41 -133t-108 -43q-63 0 -92 42l41 43q20 -23 48 -23q40 0 62.5 27t22.5 81z" />
    <glyph glyph-name="uniF3CF" unicode="&#xf3cf;" horiz-adv-x="983" 
d="M563 0h-52l-364 442v-442h-63v560h52l363 -443v443h64v-560zM624 392q0 60 42 98t107 38t107.5 -38t42.5 -98q0 -59 -42.5 -97t-107.5 -38t-107 38t-42 97zM682 392q0 -36 27 -59t64 -23q38 0 64.5 23t26.5 59q0 37 -26.5 60t-64.5 23t-64.5 -23t-26.5 -60zM649 153v56
h249v-56h-249z" />
    <glyph glyph-name="uniF3D0" unicode="&#xf3d0;" horiz-adv-x="474" 
d="M151 751h63q1 -41 27.5 -66t73.5 -25q44 0 70.5 25.5t27.5 65.5h61q-1 -64 -46 -104.5t-113 -40.5q-74 0 -118 39.5t-46 105.5z" />
    <glyph glyph-name="uniF3E4" unicode="&#xf3e4;" horiz-adv-x="0" 
d="M-179 765l-119 -147l-42 29l111 155z" />
    <glyph glyph-name="uniF400" unicode="&#xf400;" horiz-adv-x="0" 
d="M-190 762l-118 -148l-42 30l110 155z" />
    <glyph glyph-name="uniF401" unicode="&#xf401;" horiz-adv-x="0" 
d="M-224 853l-188 -91l-23 42l183 107z" />
    <glyph glyph-name="uniF406" unicode="&#xf406;" horiz-adv-x="543" 
d="M195 868l34 32q53 -63 143 -63q88 0 140 63l31 -29q-25 -40 -71.5 -67t-99.5 -27q-113 0 -177 91z" />
    <glyph glyph-name="uniF407" unicode="&#xf407;" horiz-adv-x="511" 
d="M295 -173l21 43q40 -21 75 -21q33 0 44 8t11 25q0 33 -57 33h-23v85h46v-41q99 -3 99 -78q0 -36 -28.5 -59.5t-86.5 -23.5q-61 0 -101 29z" />
    <glyph glyph-name="uniF408" unicode="&#xf408;" horiz-adv-x="473" 
d="M305 905l183 -103l-30 -43l-155 83l-153 -83l-23 43l174 103h4z" />
    <glyph glyph-name="uniF409" unicode="&#xf409;" horiz-adv-x="433" 
d="M344 -86l54 37q35 -33 35 -75t-23 -76t-51 -51l-30 27q41 39 41 83q0 31 -26 55z" />
    <glyph glyph-name="uniF40A" unicode="&#xf40a;" horiz-adv-x="171" 
d="M83 696l54 34q34 -32 34 -84q0 -80 -85 -134l-29 29q51 35 51 88q0 37 -25 67z" />
    <glyph glyph-name="uniF40B" unicode="&#xf40b;" horiz-adv-x="415" 
d="M327 826q0 18 13 30t31 12t31 -12t13 -30q0 -19 -13 -32t-31 -13t-31 13t-13 32z" />
    <glyph glyph-name="uniF40C" unicode="&#xf40c;" horiz-adv-x="486" 
d="M263 822q0 44 33 69.5t78 25.5q47 0 80 -25t33 -70q0 -43 -31.5 -70t-81.5 -27t-80.5 26t-30.5 71zM315 822q0 -22 16 -36.5t44 -14.5q30 0 45 14t15 37q0 21 -16.5 34.5t-43.5 13.5q-28 0 -44 -13.5t-16 -34.5z" />
    <glyph glyph-name="uniF40D" unicode="&#xf40d;" horiz-adv-x="559" 
d="M226 799l-22 39q21 20 50.5 32.5t50.5 12.5q31 0 82.5 -23t77.5 -23q42 0 73 34l21 -39q-20 -25 -49.5 -38.5t-54.5 -13.5q-28 0 -81 23t-82 23q-33 0 -66 -27z" />
    <glyph glyph-name="uniF40E" unicode="&#xf40e;" horiz-adv-x="452" 
d="M447 -139l11 -46q-28 -15 -74 -15q-45 -2 -79.5 21t-34.5 70q0 56 51.5 92t130.5 38v-21q-43 1 -83.5 -28t-40.5 -66q0 -54 65 -54q29 0 54 9z" />
    <glyph glyph-name="uniF410" unicode="&#xf410;" horiz-adv-x="0" 
d="M-326 762l-189 91l29 58l182 -107z" />
    <glyph glyph-name="uniF416" unicode="&#xf416;" horiz-adv-x="383" 
d="M294 -86l54 37q35 -33 35 -75t-23 -76t-51 -51l-30 27q41 39 41 83q0 31 -26 55z" />
    <glyph glyph-name="uniF418" unicode="&#xf418;" horiz-adv-x="171" 
d="M83 536l54 34q34 -32 34 -84q0 -80 -85 -134l-29 29q51 35 51 88q0 37 -25 67z" />
    <glyph glyph-name="uniF447" unicode="&#xf447;" horiz-adv-x="494" 
d="M155 -173l20 43q39 -21 75 -21q32 0 43 8t11 25q0 33 -57 33h-23v85h-11v497h-210v63h488v-63h-211v-497h-10v-41q49 -1 73.5 -22.5t24.5 -55.5q0 -36 -29.5 -59.5t-87.5 -23.5q-56 0 -96 29z" />
    <glyph glyph-name="uniF44E" unicode="&#xf44e;" horiz-adv-x="641" 
d="M24 255q0 25 7 62h508q-9 86 -71 137t-163 51q-52 0 -106 -23.5t-87 -63.5l-46 42q41 51 108 79t136 28q138 0 218 -76.5t80 -208.5q0 -127 -80 -208t-218 -81q-71 0 -128.5 25t-90.5 64.5t-50 84t-17 88.5zM540 254h-451q3 -85 63 -142t163 -57q96 0 159.5 56t65.5 143z
" />
    <glyph glyph-name="uniF452" unicode="&#xf452;" horiz-adv-x="716" 
d="M65 0v560h422v-63h-355v-200h331v-63h-331v-234h-67zM576 0v560h67v-560h-67z" />
    <glyph glyph-name="uniF453" unicode="&#xf453;" horiz-adv-x="1003" 
d="M65 0v560h422v-63h-355v-200h331v-63h-331v-234h-67zM569 0v560h67v-497h358v-63h-425z" />
    <glyph glyph-name="zero.tab" unicode="&#xf4e0;" 
d="M36 350q0 160 69.5 259t193.5 99q125 0 194.5 -99t69.5 -259t-68.5 -259t-193.5 -99t-195 99.5t-70 258.5zM106 350q0 -135 52.5 -214.5t142.5 -79.5q93 0 142.5 78.5t49.5 215.5t-50.5 215.5t-143.5 78.5q-91 0 -142 -79.5t-51 -214.5z" />
    <glyph glyph-name="one.tab" unicode="&#xf4e1;" 
d="M44 0v63h249v560l-237 -112l-25 58l284 136h44v-642h194v-63h-509z" />
    <glyph glyph-name="two.tab" unicode="&#xf4e2;" 
d="M94 524l-59 26q26 71 96 114.5t158 43.5q114 0 178.5 -60t64.5 -151q0 -103 -68.5 -186.5t-202.5 -171.5l-117 -76h407v-63h-521v53l175 124q92 65 142 109t82.5 96t32.5 108q0 66 -46.5 109t-129.5 43q-66 0 -117.5 -34t-74.5 -84z" />
    <glyph glyph-name="three.tab" unicode="&#xf4e3;" 
d="M112 528l-57 31q76 150 256 150q95 0 159.5 -48.5t64.5 -127.5q0 -122 -115 -164q59 -10 100.5 -52.5t41.5 -111.5q0 -105 -72.5 -159.5t-193.5 -54.5q-94 0 -162.5 42.5t-100.5 123.5l61 26q69 -125 205 -125q85 0 139 36.5t54 100.5q0 131 -193 131h-95v65h77
q72 0 128 38t56 93q0 57 -47 89t-113 32q-133 0 -193 -115z" />
    <glyph glyph-name="four.tab" unicode="&#xf4e4;" 
d="M414 0v150h-403v45l407 505h63v-486h107v-64h-107v-150h-67zM105 214h309v381z" />
    <glyph glyph-name="five.tab" unicode="&#xf4e5;" 
d="M67 344l41 356h446v-65h-388l-27 -223q68 32 167 32q117 0 185.5 -62.5t68.5 -162.5q0 -103 -73.5 -165.5t-190.5 -62.5q-88 0 -162 38t-108 109l60 30q23 -47 80.5 -79t130.5 -32q86 0 139.5 45t53.5 114q0 77 -55 122t-142 45q-92 0 -172 -47z" />
    <glyph glyph-name="six.tab" unicode="&#xf4e6;" 
d="M39 331q0 186 77 280t222 98q114 3 186 -75l-39 -48q-33 32 -67 44.5t-85 12.5q-104 0 -166 -75t-60 -230q32 61 89.5 93.5t130.5 32.5q120 0 182 -62t62 -164q0 -119 -72.5 -183t-178.5 -64q-133 0 -207 88t-74 252zM118 262q0 -81 54 -143t147 -62q78 0 130 47t52 132
q0 81 -49.5 123.5t-140.5 42.5q-69 0 -125 -46t-68 -94z" />
    <glyph glyph-name="seven.tab" unicode="&#xf4e7;" 
d="M47 635v65h511v-45l-342 -655h-74l334 635h-429z" />
    <glyph glyph-name="eight.tab" unicode="&#xf4e8;" 
d="M286 392h31q59 0 103.5 36t44.5 90q0 60 -45 93t-121 33q-73 0 -118 -33.5t-45 -92.5q0 -56 40.5 -91t109.5 -35zM315 328h-26q-81 0 -129 -38t-48 -97q0 -64 52.5 -101t135.5 -37q87 0 138 37t51 101q0 65 -45 100t-129 35zM301 -9q-117 0 -188 52t-71 142q0 65 36 111
t99 66q-54 18 -83 62.5t-29 98.5q0 84 65.5 135t169.5 51q111 0 173.5 -50.5t62.5 -135.5q0 -113 -114 -160q67 -15 102 -60.5t35 -113.5q0 -93 -71 -145.5t-187 -52.5z" />
    <glyph glyph-name="nine.tab" unicode="&#xf4e9;" 
d="M559 369q0 -191 -73.5 -284.5t-206.5 -93.5q-63 0 -115 26t-83 67l47 46q64 -73 152 -73q102 0 158 74t52 227q-24 -57 -79.5 -89.5t-126.5 -32.5q-107 0 -171.5 65t-64.5 171q0 103 72.5 170t166.5 67q134 0 203 -87t69 -253zM480 435q0 82 -50 145t-140 63
q-72 0 -122 -47.5t-50 -121.5q0 -85 48.5 -130.5t130.5 -45.5q68 0 119.5 44.5t63.5 92.5z" />
    <glyph glyph-name="dollar.tab" unicode="&#xf4ec;" 
d="M491 183q0 45 -33 74t-82.5 41.5t-107 28.5t-107 33.5t-82.5 58.5t-33 102q0 73 62 126.5t165 60.5v80h66v-81q144 -11 211 -94l-45 -45q-79 75 -204 75q-29 0 -59 -6.5t-58.5 -19.5t-46.5 -37t-18 -56q0 -39 24.5 -65.5t64 -41t87 -26t94.5 -25.5t86.5 -33.5t64 -56
t24.5 -87.5q0 -82 -63 -136t-162 -61v-90h-66v92q-78 8 -143 44t-98 85l48 49q35 -47 98 -81t143 -34q69 0 119.5 34.5t50.5 91.5z" />
    <glyph glyph-name="Euro.tab" unicode="&#xf4ed;" 
d="M19 408l23 60h74q32 108 117 174.5t206 66.5q87 0 146 -34l-25 -56q-52 27 -121 27q-88 0 -154 -48t-94 -130h330l-22 -60h-323q-5 -25 -5 -61q0 -10 2 -40h299l-20 -60h-266q25 -89 96 -141t169 -52q67 0 109 24l14 -59q-17 -12 -54 -20t-72 -8q-129 0 -218.5 68
t-118.5 188h-90l21 60h60q-3 21 -3 40q0 38 4 61h-84z" />
    <glyph glyph-name="cent.tab" unicode="&#xf4ee;" 
d="M473 135l45 -36q-25 -47 -78 -75.5t-112 -32.5v-191h-67v194q-104 14 -165.5 85.5t-61.5 181.5q0 105 62 179t165 89v171h67v-168q58 -5 107.5 -31t73.5 -67l-51 -36q-53 68 -134 72v-418q93 3 149 83zM104 261q0 -81 43.5 -135.5t116.5 -68.5v410q-72 -14 -116 -70.5
t-44 -135.5z" />
    <glyph glyph-name="sterling.tab" unicode="&#xf4ef;" 
d="M77 278v55h73q-5 12 -16 37t-17.5 41t-12 43t-5.5 56q0 80 58.5 139t153.5 59q124 0 193 -77l-37 -52q-63 64 -157 64q-56 0 -97.5 -38.5t-41.5 -97.5q0 -29 8 -56.5t23.5 -63t21.5 -54.5h172v-55h-160q2 -11 2 -34q0 -87 -38 -136q36 0 106 -24.5t108 -24.5
q34 0 56 11.5t52 40.5l32 -51q-62 -63 -141 -63q-39 0 -112.5 25t-114.5 25q-61 0 -117 -55l-30 51q37 39 83 55q48 62 48 140q0 18 -5 40h-88z" />
    <glyph glyph-name="yen.tab" unicode="&#xf4fa;" 
d="M90 304v58h147l-239 338h85l231 -328l235 328h80l-242 -338h149v-58h-189v-117h189v-58h-189v-129h-70v129h-187v58h187v117h-187z" />
    <glyph glyph-name="florin.tab" unicode="&#xf4fb;" 
d="M350 506q-2 -9 -5.5 -27t-4.5 -27h161v-61h-172l-67 -377q-7 -40 -12.5 -64t-18.5 -58t-29.5 -53t-45.5 -33t-66 -14q-63 0 -98 33l20 52q31 -24 68 -24q47 0 72.5 30.5t36.5 92.5l74 415h-152v61h163l11 65q7 42 18.5 73.5t31.5 60t52.5 43.5t76.5 15q73 0 119 -38
l-24 -52q-37 29 -87 29q-52 0 -80 -33t-42 -109z" />
    <glyph glyph-name="uni20B4.tab" unicode="&#xf4fc;" 
d="M67 412v58h311q31 40 31 81q0 40 -30.5 66.5t-78.5 26.5q-92 0 -148 -55l-33 52q66 68 184 68q81 0 131 -41.5t50 -106.5q0 -54 -32 -91h76v-58h-112q-28 -27 -87 -62.5t-67 -41.5h266v-58h-313q-44 -50 -44 -88q0 -51 40.5 -78.5t99.5 -27.5q48 0 90.5 20t69.5 56
l34 -46q-29 -45 -84 -70t-118 -25q-84 0 -141.5 43.5t-57.5 119.5q0 50 35 96h-72v58h110q32 27 93.5 64.5t64.5 39.5h-268z" />
    <glyph glyph-name="uni20BD.tab" unicode="&#xf4fd;" 
d="M23 306v64h109v330q59 0 91 1q17 0 46 0.5t37 0.5q253 0 253 -195q0 -89 -63 -145t-190 -56h-105v-98h178v-63h-178v-145h-69v145h-109v63h109v98h-109zM312 638l-111 -1v-267h103q183 0 183 134t-175 134z" />
    <glyph glyph-name="uniF66D" unicode="&#xf66d;" horiz-adv-x="580" 
d="M2 0l261 561h54l261 -561h-71l-69 146h-300l-68 -146h-68zM288 468l-124 -263h249zM142 733l28 31q18 -22 53 -40.5t69 -18.5q78 0 122 58l24 -30q-59 -90 -147 -90q-50 0 -90.5 30.5t-58.5 59.5z" />
    <glyph glyph-name="uniF66E" unicode="&#xf66e;" horiz-adv-x="580" 
d="M2 0l261 561h54l261 -561h-71l-69 146h-300l-68 -146h-68zM288 468l-124 -263h249zM159 651v58h261v-58h-261z" />
    <glyph glyph-name="uniF66F" unicode="&#xf66f;" horiz-adv-x="580" 
d="M563 -135l18 -47q-31 -18 -72 -18q-42 0 -74.5 25t-32.5 73q0 40 28.5 69.5t70.5 43.5l-63 135h-300l-68 -146h-68l261 561h54l261 -561h-20q-29 -2 -59 -28t-30 -61q0 -23 13.5 -39t33.5 -16q28 0 47 9zM288 468l-124 -263h249z" />
    <glyph glyph-name="uniF671" unicode="&#xf671;" horiz-adv-x="585" 
d="M528 133l38 -43q-32 -44 -93.5 -70.5t-132.5 -26.5q-141 0 -224.5 78t-83.5 209q0 123 82.5 205t217.5 82q76 0 135 -26t90 -65l-42 -43q-75 70 -183 70q-106 0 -168 -61.5t-62 -161.5t66.5 -161.5t174.5 -61.5q114 0 185 76zM435 765l-119 -147l-42 29l111 155z" />
    <glyph glyph-name="uniF672" unicode="&#xf672;" horiz-adv-x="585" 
d="M528 133l38 -43q-32 -44 -93.5 -70.5t-132.5 -26.5q-141 0 -224.5 78t-83.5 209q0 123 82.5 205t217.5 82q76 0 135 -26t90 -65l-42 -43q-75 70 -183 70q-106 0 -168 -61.5t-62 -161.5t66.5 -161.5t174.5 -61.5q114 0 185 76zM315 625l-144 124l36 41l109 -96l114 94
l30 -40l-141 -123h-4z" />
    <glyph glyph-name="uniF673" unicode="&#xf673;" horiz-adv-x="585" 
d="M528 133l38 -43q-32 -44 -93.5 -70.5t-132.5 -26.5q-141 0 -224.5 78t-83.5 209q0 123 82.5 205t217.5 82q76 0 135 -26t90 -65l-42 -43q-75 70 -183 70q-106 0 -168 -61.5t-62 -161.5t66.5 -161.5t174.5 -61.5q114 0 185 76zM318 784l143 -123l-36 -42l-108 97l-115 -94
l-29 40l141 122h4z" />
    <glyph glyph-name="uniF674" unicode="&#xf674;" horiz-adv-x="585" 
d="M528 133l38 -43q-32 -44 -93.5 -70.5t-132.5 -26.5q-141 0 -224.5 78t-83.5 209q0 123 82.5 205t217.5 82q76 0 135 -26t90 -65l-42 -43q-75 70 -183 70q-106 0 -168 -61.5t-62 -161.5t66.5 -161.5t174.5 -61.5q114 0 185 76zM273 696q0 18 13.5 30t31.5 12t30.5 -12
t12.5 -30q0 -19 -12.5 -32t-30.5 -13q-19 0 -32 13t-13 32z" />
    <glyph glyph-name="uniF675" unicode="&#xf675;" horiz-adv-x="605" 
d="M65 0v560h182q168 0 247 -76t79 -196q0 -127 -84.5 -207.5t-249.5 -80.5h-174zM245 497h-113v-434h111q131 0 195.5 61t64.5 164q0 96 -62 152.5t-196 56.5zM265 625l-144 124l36 41l109 -96l114 94l30 -40l-141 -123h-4z" />
    <glyph glyph-name="uniF676" unicode="&#xf676;" horiz-adv-x="653" 
d="M8 250v56h105v254h182q168 0 247 -76t79 -196q0 -127 -84.5 -207.5t-249.5 -80.5h-174v250h-105zM293 497h-113v-191h166v-56h-166v-187h111q131 0 195.5 61t64.5 164q0 96 -62 152.5t-196 56.5z" />
    <glyph glyph-name="uniF678" unicode="&#xf678;" horiz-adv-x="543" 
d="M65 0v560h426v-63h-359v-181h336v-63h-336v-190h368v-63h-435zM277 625l-144 124l36 41l109 -96l114 94l30 -40l-141 -123h-4z" />
    <glyph glyph-name="uniF679" unicode="&#xf679;" horiz-adv-x="543" 
d="M65 0v560h426v-63h-359v-181h336v-63h-336v-190h368v-63h-435zM235 696q0 18 13.5 30t31.5 12t30.5 -12t12.5 -30q0 -19 -12.5 -32t-30.5 -13q-19 0 -32 13t-13 32z" />
    <glyph glyph-name="uniF67A" unicode="&#xf67a;" horiz-adv-x="543" 
d="M65 0v560h426v-63h-359v-181h336v-63h-336v-190h368v-63h-435zM155 651v58h261v-58h-261z" />
    <glyph glyph-name="uniF67C" unicode="&#xf67c;" horiz-adv-x="543" 
d="M65 0v560h426v-63h-359v-181h336v-63h-336v-190h368v-63h-9q-29 -2 -59 -28t-30 -61q0 -23 13.5 -39t33.5 -16q28 0 47 9l18 -47q-31 -18 -72 -18q-42 0 -74.5 25t-32.5 73q0 64 73 102h-343z" />
    <glyph glyph-name="uniF67D" unicode="&#xf67d;" horiz-adv-x="603" 
d="M340 222v61h230v-207q-37 -39 -100 -61t-127 -22q-137 0 -224 79t-87 208q0 121 87 204t216 83q147 0 222 -83l-42 -44q-60 63 -175 63q-106 0 -172 -62t-66 -161q0 -102 67.5 -162.5t174.5 -60.5q99 0 163 50v115h-167zM157 733l28 31q18 -22 53 -40.5t69 -18.5
q78 0 122 58l24 -30q-59 -90 -147 -90q-50 0 -90.5 30.5t-58.5 59.5z" />
    <glyph glyph-name="uniF67E" unicode="&#xf67e;" horiz-adv-x="603" 
d="M340 222v61h230v-207q-37 -39 -100 -61t-127 -22q-137 0 -224 79t-87 208q0 121 87 204t216 83q147 0 222 -83l-42 -44q-60 63 -175 63q-106 0 -172 -62t-66 -161q0 -102 67.5 -162.5t174.5 -60.5q99 0 163 50v115h-167zM321 784l143 -123l-36 -42l-108 97l-115 -94
l-29 40l141 122h4z" />
    <glyph glyph-name="uniF67F" unicode="&#xf67f;" horiz-adv-x="603" 
d="M340 222v61h230v-207q-37 -39 -100 -61t-127 -22q-137 0 -224 79t-87 208q0 121 87 204t216 83q147 0 222 -83l-42 -44q-60 63 -175 63q-106 0 -172 -62t-66 -161q0 -102 67.5 -162.5t174.5 -60.5q99 0 163 50v115h-167zM304 -86l54 37q35 -33 35 -75t-23 -76t-51 -51
l-30 27q41 39 41 83q0 31 -26 55z" />
    <glyph glyph-name="uniF680" unicode="&#xf680;" horiz-adv-x="603" 
d="M340 222v61h230v-207q-37 -39 -100 -61t-127 -22q-137 0 -224 79t-87 208q0 121 87 204t216 83q147 0 222 -83l-42 -44q-60 63 -175 63q-106 0 -172 -62t-66 -161q0 -102 67.5 -162.5t174.5 -60.5q99 0 163 50v115h-167zM283 696q0 18 13.5 30t31.5 12t30.5 -12t12.5 -30
q0 -19 -12.5 -32t-30.5 -13q-19 0 -32 13t-13 32z" />
    <glyph glyph-name="uniF681" unicode="&#xf681;" horiz-adv-x="635" 
d="M0 413v55h65v92h67v-92h371v92h67v-92h65v-55h-65v-413h-67v253h-371v-253h-67v413h-65zM132 316h371v97h-371v-97z" />
    <glyph glyph-name="uniF682" unicode="&#xf682;" horiz-adv-x="634" 
d="M503 0v253h-371v-253h-67v560h67v-244h371v244h67v-560h-67zM318 784l143 -123l-36 -42l-108 97l-115 -94l-29 40l141 122h4z" />
    <glyph glyph-name="uniF685" unicode="&#xf685;" horiz-adv-x="212" 
d="M73 0v560h67v-560h-67zM-24 651v58h261v-58h-261z" />
    <glyph glyph-name="uniF686" unicode="&#xf686;" horiz-adv-x="212" 
d="M137 -135l18 -47q-31 -18 -72 -18q-42 0 -74.5 25t-32.5 73q0 39 27.5 68t69.5 44v550h67v-560h-8q-29 -2 -59 -28t-30 -61q0 -23 13.5 -39t33.5 -16q28 0 47 9z" />
    <glyph glyph-name="uniF688" unicode="&#xf688;" horiz-adv-x="413" 
d="M349 560v-392q0 -84 -47.5 -129.5t-128.5 -45.5q-65 0 -109.5 30t-65.5 71l50 38q47 -78 121 -77q56 1 84.5 29.5t28.5 95.5v380h67zM304 784l143 -123l-36 -42l-108 97l-115 -94l-29 40l141 122h4z" />
    <glyph glyph-name="uniF689" unicode="&#xf689;" horiz-adv-x="557" 
d="M65 0v560h67v-276l314 276h89l-285 -254l306 -306h-92l-264 261l-68 -58v-203h-67zM229 -86l54 37q35 -33 35 -75t-23 -76t-51 -51l-30 27q41 39 41 83q0 31 -26 55z" />
    <glyph glyph-name="uniF68A" unicode="&#xf68a;" horiz-adv-x="499" 
d="M65 0v560h67v-497h358v-63h-425zM287 765l-119 -147l-42 29l111 155z" />
    <glyph glyph-name="uniF68B" unicode="&#xf68b;" horiz-adv-x="499" 
d="M65 0v560h67v-497h358v-63h-425zM332 560h66q11 -24 11 -63q0 -44 -26 -82t-59 -59l-29 28q23 17 38.5 48t15.5 57q0 46 -17 71z" />
    <glyph glyph-name="uniF68C" unicode="&#xf68c;" horiz-adv-x="499" 
d="M65 0v560h67v-497h358v-63h-425zM237 -86l54 37q35 -33 35 -75t-23 -76t-51 -51l-30 27q41 39 41 83q0 31 -26 55z" />
    <glyph glyph-name="uniF68D" unicode="&#xf68d;" horiz-adv-x="499" 
d="M65 0v560h67v-497h358v-63h-425zM305 313q0 19 15.5 34t39.5 15q21 0 36.5 -15t15.5 -34q0 -22 -15 -38t-37 -16q-24 0 -39.5 16t-15.5 38z" />
    <glyph glyph-name="uniF68E" unicode="&#xf68e;" horiz-adv-x="628" 
d="M563 0h-53l-380 441v-441h-65v560h54l379 -443v443h65v-560zM434 765l-119 -147l-42 29l111 155z" />
    <glyph glyph-name="uniF68F" unicode="&#xf68f;" horiz-adv-x="628" 
d="M563 0h-53l-380 441v-441h-65v560h54l379 -443v443h65v-560zM314 625l-144 124l36 41l109 -96l114 94l30 -40l-141 -123h-4z" />
    <glyph glyph-name="uniF690" unicode="&#xf690;" horiz-adv-x="628" 
d="M563 0h-53l-380 441v-441h-65v560h54l379 -443v443h65v-560zM278 -86l54 37q35 -33 35 -75t-23 -76t-51 -51l-30 27q41 39 41 83q0 31 -26 55z" />
    <glyph glyph-name="uniF692" unicode="&#xf692;" horiz-adv-x="666" 
d="M32 280q0 121 87 204t215 83q127 0 213.5 -81.5t86.5 -205.5q0 -123 -87 -205t-213 -82q-127 0 -214.5 81.5t-87.5 205.5zM102 280q0 -96 67.5 -159.5t164.5 -63.5q98 0 164 63.5t66 159.5q0 97 -67 160t-163 63q-97 0 -164.5 -63t-67.5 -160zM529 780l-133 -162l-38 27
l123 171zM382 783l-130 -165l-38 27l121 172z" />
    <glyph glyph-name="uniF693" unicode="&#xf693;" horiz-adv-x="666" 
d="M32 280q0 121 87 204t215 83q127 0 213.5 -81.5t86.5 -205.5q0 -123 -87 -205t-213 -82q-127 0 -214.5 81.5t-87.5 205.5zM102 280q0 -96 67.5 -159.5t164.5 -63.5q98 0 164 63.5t66 159.5q0 97 -67 160t-163 63q-97 0 -164.5 -63t-67.5 -160zM203 651v58h261v-58h-261z
" />
    <glyph glyph-name="uniF695" unicode="&#xf695;" horiz-adv-x="575" 
d="M132 0h-67v560h225q228 0 228 -166q0 -60 -41.5 -103t-109.5 -55l195 -236h-82l-183 223h-165v-223zM288 497h-156v-212h161q70 0 112.5 29.5t42.5 79.5q0 103 -160 103zM375 765l-119 -147l-42 29l111 155z" />
    <glyph glyph-name="uniF696" unicode="&#xf696;" horiz-adv-x="575" 
d="M132 0h-67v560h225q228 0 228 -166q0 -60 -41.5 -103t-109.5 -55l195 -236h-82l-183 223h-165v-223zM288 497h-156v-212h161q70 0 112.5 29.5t42.5 79.5q0 103 -160 103zM258 625l-144 124l36 41l109 -96l114 94l30 -40l-141 -123h-4z" />
    <glyph glyph-name="uniF697" unicode="&#xf697;" horiz-adv-x="575" 
d="M132 0h-67v560h225q228 0 228 -166q0 -60 -41.5 -103t-109.5 -55l195 -236h-82l-183 223h-165v-223zM288 497h-156v-212h161q70 0 112.5 29.5t42.5 79.5q0 103 -160 103zM237 -86l54 37q35 -33 35 -75t-23 -76t-51 -51l-30 27q41 39 41 83q0 31 -26 55z" />
    <glyph glyph-name="uniF698" unicode="&#xf698;" horiz-adv-x="521" 
d="M416 148q0 39 -38.5 62t-93.5 35t-110 26.5t-93.5 50t-38.5 92.5q0 64 60.5 108.5t157.5 44.5q148 0 214 -80l-43 -43q-65 60 -173 60q-54 0 -100 -22t-46 -65q0 -39 38.5 -62.5t93 -35.5t109.5 -27t93.5 -49t38.5 -90q0 -71 -60 -115.5t-153 -44.5q-76 0 -143 31t-99 76
l45 47q30 -39 83.5 -65t121.5 -26q55 0 95.5 25t40.5 67zM373 765l-119 -147l-42 29l111 155z" />
    <glyph glyph-name="uniF699" unicode="&#xf699;" horiz-adv-x="521" 
d="M170 -173l20 43q39 -21 75 -21q32 0 43 8t11 25q0 33 -57 33h-23v80q-67 6 -124 35.5t-85 69.5l45 47q30 -39 83.5 -65t121.5 -26q55 0 95.5 25t40.5 67q0 39 -38.5 62t-93.5 35t-110 26.5t-93.5 50t-38.5 92.5q0 64 60.5 108.5t157.5 44.5q148 0 214 -80l-43 -43
q-65 60 -173 60q-54 0 -100 -22t-46 -65q0 -39 38.5 -62.5t93 -35.5t109.5 -27t93.5 -49t38.5 -90q0 -68 -55.5 -112t-144.5 -48v-34q49 -1 73.5 -22.5t24.5 -55.5q0 -36 -29.5 -59.5t-87.5 -23.5q-56 0 -96 29z" />
    <glyph glyph-name="uniF69A" unicode="&#xf69a;" horiz-adv-x="521" 
d="M416 148q0 39 -38.5 62t-93.5 35t-110 26.5t-93.5 50t-38.5 92.5q0 64 60.5 108.5t157.5 44.5q148 0 214 -80l-43 -43q-65 60 -173 60q-54 0 -100 -22t-46 -65q0 -39 38.5 -62.5t93 -35.5t109.5 -27t93.5 -49t38.5 -90q0 -71 -60 -115.5t-153 -44.5q-76 0 -143 31t-99 76
l45 47q30 -39 83.5 -65t121.5 -26q55 0 95.5 25t40.5 67zM260 784l143 -123l-36 -42l-108 97l-115 -94l-29 40l141 122h4z" />
    <glyph glyph-name="uniF69B" unicode="&#xf69b;" horiz-adv-x="521" 
d="M416 148q0 39 -38.5 62t-93.5 35t-110 26.5t-93.5 50t-38.5 92.5q0 64 60.5 108.5t157.5 44.5q148 0 214 -80l-43 -43q-65 60 -173 60q-54 0 -100 -22t-46 -65q0 -39 38.5 -62.5t93 -35.5t109.5 -27t93.5 -49t38.5 -90q0 -71 -60 -115.5t-153 -44.5q-76 0 -143 31t-99 76
l45 47q30 -39 83.5 -65t121.5 -26q55 0 95.5 25t40.5 67zM219 -86l54 37q35 -33 35 -75t-23 -76t-51 -51l-30 27q41 39 41 83q0 31 -26 55z" />
    <glyph glyph-name="uniF69D" unicode="&#xf69d;" horiz-adv-x="494" 
d="M3 497v63h488v-63h-211v-497h-67v497h-210zM246 625l-144 124l36 41l109 -96l114 94l30 -40l-141 -123h-4z" />
    <glyph glyph-name="uniF69E" unicode="&#xf69e;" horiz-adv-x="494" 
d="M3 497v63h488v-63h-211v-497h-67v497h-210zM210 -86l54 37q35 -33 35 -75t-23 -76t-51 -51l-30 27q41 39 41 83q0 31 -26 55z" />
    <glyph glyph-name="uniF69F" unicode="&#xf69f;" horiz-adv-x="612" 
d="M555 560v-324q0 -62 -20.5 -110t-55.5 -76t-77 -42t-88 -14q-109 0 -183 65t-74 182v319h67v-309q0 -92 54.5 -143t135.5 -51q85 0 129.5 50.5t44.5 139.5v313h67zM159 733l28 31q18 -22 53 -40.5t69 -18.5q78 0 122 58l24 -30q-59 -90 -147 -90q-50 0 -90.5 30.5
t-58.5 59.5z" />
    <glyph glyph-name="uniF6A0" unicode="&#xf6a0;" horiz-adv-x="612" 
d="M555 560v-324q0 -62 -20.5 -110t-55.5 -76t-77 -42t-88 -14q-109 0 -183 65t-74 182v319h67v-309q0 -92 54.5 -143t135.5 -51q85 0 129.5 50.5t44.5 139.5v313h67zM500 780l-133 -162l-38 27l123 171zM353 783l-130 -165l-38 27l121 172z" />
    <glyph glyph-name="uniF6A1" unicode="&#xf6a1;" horiz-adv-x="612" 
d="M555 560v-324q0 -62 -20.5 -110t-55.5 -76t-77 -42t-88 -14q-109 0 -183 65t-74 182v319h67v-309q0 -92 54.5 -143t135.5 -51q85 0 129.5 50.5t44.5 139.5v313h67zM176 651v58h261v-58h-261z" />
    <glyph glyph-name="uniF6A2" unicode="&#xf6a2;" horiz-adv-x="612" 
d="M555 560v-324q0 -87 -38 -142.5t-100 -80.5q-80 -50 -80 -103q0 -23 13.5 -38.5t33.5 -15.5q28 0 47 9l18 -47q-31 -18 -72 -18q-42 0 -74.5 25t-32.5 73q0 53 68 97q-4 0 -12 -0.5t-12 -0.5q-109 0 -183 65t-74 182v319h67v-309q0 -92 54.5 -143t135.5 -51
q85 0 129.5 50.5t44.5 139.5v313h67z" />
    <glyph glyph-name="uniF6A3" unicode="&#xf6a3;" horiz-adv-x="612" 
d="M555 560v-324q0 -62 -20.5 -110t-55.5 -76t-77 -42t-88 -14q-109 0 -183 65t-74 182v319h67v-309q0 -92 54.5 -143t135.5 -51q85 0 129.5 50.5t44.5 139.5v313h67zM206 706q0 41 28.5 70t70.5 29t71.5 -29t29.5 -70t-29.5 -69.5t-71.5 -28.5t-70.5 28.5t-28.5 69.5z
M255 706q0 -21 14.5 -35.5t36.5 -14.5t36.5 13t14.5 37t-14 38t-37 14t-37 -14.5t-14 -37.5z" />
    <glyph glyph-name="uniF6AB" unicode="&#xf6ab;" horiz-adv-x="536" 
d="M28 497v63h482v-46l-399 -451h408v-63h-507v46l398 451h-382zM375 765l-119 -147l-42 29l111 155z" />
    <glyph glyph-name="uniF6AC" unicode="&#xf6ac;" horiz-adv-x="536" 
d="M28 497v63h482v-46l-399 -451h408v-63h-507v46l398 451h-382zM224 696q0 18 13.5 30t31.5 12t30.5 -12t12.5 -30q0 -19 -12.5 -32t-30.5 -13q-19 0 -32 13t-13 32z" />
    <glyph glyph-name="uniF6AD" unicode="&#xf6ad;" horiz-adv-x="212" 
d="M73 0v560h67v-560h-67zM62 696q0 18 13.5 30t31.5 12t30.5 -12t12.5 -30q0 -19 -12.5 -32t-30.5 -13q-19 0 -32 13t-13 32z" />
    <glyph glyph-name="uniF6BA" unicode="&#xf6ba;" horiz-adv-x="404" 
d="M82 325v61h240v-61h-240z" />
    <glyph glyph-name="uniF6BB" unicode="&#xf6bb;" horiz-adv-x="594" 
d="M92 327v58h410v-58h-410z" />
    <glyph glyph-name="uniF6BC" unicode="&#xf6bc;" horiz-adv-x="795" 
d="M92 327v58h612v-58h-612z" />
    <glyph glyph-name="uniF6C3" unicode="&#xf6c3;" horiz-adv-x="344" 
d="M256 -86l54 37q35 -35 35 -75q0 -42 -23 -76t-51 -51l-30 27q41 39 41 83q0 31 -26 55z" />
    <glyph glyph-name="uniF6C9" unicode="&#xf6c9;" horiz-adv-x="534" 
d="M533 853l-188 -91l-23 42l183 107z" />
    <glyph glyph-name="uniF6CA" unicode="&#xf6ca;" horiz-adv-x="472" 
d="M302 760l-182 102l29 43l155 -85l153 85l24 -42l-175 -103h-4z" />
    <glyph glyph-name="uniF6CB" unicode="&#xf6cb;" horiz-adv-x="486" 
d="M168 824q0 17 13 28t33 11q16 0 29 -11t13 -28q0 -18 -13 -29t-29 -11q-20 0 -33 10.5t-13 29.5zM401 824q0 17 13 28t32 11q17 0 29.5 -11t12.5 -28q0 -19 -12.5 -29.5t-29.5 -10.5q-20 0 -32.5 10.5t-12.5 29.5z" />
    <glyph glyph-name="uniF6CE" unicode="&#xf6ce;" horiz-adv-x="433" 
d="M411 762l-189 91l29 58l182 -107z" />
    <glyph glyph-name="uniF6CF" unicode="&#xf6cf;" horiz-adv-x="611" 
d="M610 850l-162 -94l-26 37l154 106zM432 855l-156 -99l-25 36l142 107z" />
    <glyph glyph-name="uniF6D0" unicode="&#xf6d0;" horiz-adv-x="517" 
d="M220 795v58h297v-58h-297z" />
    <glyph glyph-name="uniF6D1" unicode="&#xf6d1;" horiz-adv-x="546" 
d="M196 878l60 10q31 -64 114 -64q41 0 71.5 16.5t39.5 47.5l59 -10q-12 -53 -57 -82.5t-112 -29.5q-71 0 -115 30t-60 82z" />
    <glyph glyph-name="uniF6D4" unicode="&#xf6d4;" horiz-adv-x="469" 
d="M146 746h63q1 -41 27.5 -66t73.5 -25q44 0 70.5 25.5t27.5 65.5h61q-1 -64 -46 -104.5t-113 -40.5q-74 0 -118.5 39.5t-45.5 105.5z" />
    <glyph glyph-name="uniF6F4" unicode="&#xf6f4;" horiz-adv-x="486" 
d="M190 733l28 31q18 -22 53 -40.5t69 -18.5q78 0 122 58l24 -30q-59 -90 -147 -90q-50 0 -90.5 30.5t-58.5 59.5z" />
    <glyph glyph-name="uniF6F5" unicode="&#xf6f5;" horiz-adv-x="470" 
d="M325 625l-144 124l36 41l109 -96l114 94l30 -40l-141 -123h-4z" />
    <glyph glyph-name="uniF6F6" unicode="&#xf6f6;" horiz-adv-x="456" 
d="M313 784l143 -123l-36 -42l-108 97l-115 -94l-29 40l141 122h4z" />
    <glyph glyph-name="uniF6F7" unicode="&#xf6f7;" horiz-adv-x="371" 
d="M283 696q0 18 13.5 30t31.5 12t30.5 -12t12.5 -30q0 -19 -12.5 -32t-30.5 -13q-19 0 -32 13t-13 32z" />
    <glyph glyph-name="uniF6F8" unicode="&#xf6f8;" horiz-adv-x="527" 
d="M527 780l-133 -162l-38 27l123 171zM380 783l-130 -165l-38 27l121 172z" />
    <glyph glyph-name="uniF6F9" unicode="&#xf6f9;" horiz-adv-x="505" 
d="M0 119v69l71 49v323h67v-276l176 123v-70l-176 -122v-152h358v-63h-425v168z" />
    <glyph glyph-name="uniF6FA" unicode="&#xf6fa;" horiz-adv-x="1012" 
d="M533 0v71q-85 -78 -199 -78q-127 0 -214.5 81.5t-87.5 205.5q0 121 87 204t215 83q122 0 199 -77v70h427v-63h-360v-182h336v-62h-336v-190h368v-63h-435zM334 57q64 0 116.5 28.5t82.5 77.5v232q-31 50 -84 79t-115 29q-97 0 -164.5 -63t-67.5 -160q0 -96 67.5 -159.5
t164.5 -63.5z" />
    <glyph glyph-name="uniF6FB" unicode="&#xf6fb;" horiz-adv-x="390" 
d="M391 -135l18 -47q-31 -18 -72 -18q-42 0 -74.5 25t-32.5 73q0 54 52 89t107 36v-23q-29 0 -60.5 -26.5t-31.5 -62.5q0 -23 13.5 -39t33.5 -16q28 0 47 9z" />
    <glyph glyph-name="uniF6FC" unicode="&#xf6fc;" horiz-adv-x="434" 
d="M233 706q0 41 28.5 70t70.5 29t71.5 -29t29.5 -70t-29.5 -69.5t-71.5 -28.5t-70.5 28.5t-28.5 69.5zM282 706q0 -21 14.5 -35.5t36.5 -14.5t36.5 13t14.5 37t-14 38t-37 14t-37 -14.5t-14 -37.5z" />
    <glyph glyph-name="uniF6FD" unicode="&#xf6fd;" horiz-adv-x="521" 
d="M416 148q0 39 -38.5 62t-93.5 35t-110 26.5t-93.5 50t-38.5 92.5q0 64 60.5 108.5t157.5 44.5q148 0 214 -80l-43 -43q-65 60 -173 60q-54 0 -100 -22t-46 -65q0 -39 38.5 -62.5t93 -35.5t109.5 -27t93.5 -49t38.5 -90q0 -71 -60 -115.5t-153 -44.5q-76 0 -143 31t-99 76
l45 47q30 -39 83.5 -65t121.5 -26q55 0 95.5 25t40.5 67zM260 625l-144 124l36 41l109 -96l114 94l30 -40l-141 -123h-4z" />
    <glyph glyph-name="uniF6FE" unicode="&#xf6fe;" horiz-adv-x="484" 
d="M194 637l-31 32q59 59 107 59q24 0 63 -24.5t59 -24.5q36 0 67 34l26 -33q-44 -57 -99 -57q-29 0 -65.5 25t-53.5 25q-30 0 -73 -36z" />
    <glyph glyph-name="uniF6FF" unicode="&#xf6ff;" horiz-adv-x="536" 
d="M28 497v63h482v-46l-399 -451h408v-63h-507v46l398 451h-382zM267 625l-144 124l36 41l109 -96l114 94l30 -40l-141 -123h-4z" />
    <glyph glyph-name="uniF760" unicode="&#xf760;" horiz-adv-x="381" 
d="M341 619l-121 145l51 38l110 -153z" />
    <glyph glyph-name="uniF761" unicode="&#xf761;" horiz-adv-x="580" 
d="M2 0l261 561h54l261 -561h-71l-69 146h-300l-68 -146h-68zM288 468l-124 -263h249z" />
    <glyph glyph-name="uniF762" unicode="&#xf762;" horiz-adv-x="571" 
d="M65 0v560h235q115 0 162.5 -36t47.5 -102q0 -97 -88 -130q51 -9 80.5 -43.5t29.5 -89.5q0 -159 -235 -159h-232zM306 255h-174v-192h166q85 0 125.5 24t40.5 76q0 92 -158 92zM297 497h-165v-180h177q61 0 97 24t36 66q0 46 -33 68t-112 22z" />
    <glyph glyph-name="uniF763" unicode="&#xf763;" horiz-adv-x="585" 
d="M528 133l38 -43q-32 -44 -93.5 -70.5t-132.5 -26.5q-141 0 -224.5 78t-83.5 209q0 123 82.5 205t217.5 82q76 0 135 -26t90 -65l-42 -43q-75 70 -183 70q-106 0 -168 -61.5t-62 -161.5t66.5 -161.5t174.5 -61.5q114 0 185 76z" />
    <glyph glyph-name="uniF764" unicode="&#xf764;" horiz-adv-x="605" 
d="M65 0v560h182q168 0 247 -76t79 -196q0 -127 -84.5 -207.5t-249.5 -80.5h-174zM245 497h-113v-434h111q131 0 195.5 61t64.5 164q0 96 -62 152.5t-196 56.5z" />
    <glyph glyph-name="uniF765" unicode="&#xf765;" horiz-adv-x="543" 
d="M65 0v560h426v-63h-359v-181h336v-63h-336v-190h368v-63h-435z" />
    <glyph glyph-name="uniF766" unicode="&#xf766;" horiz-adv-x="518" 
d="M65 0v560h422v-63h-355v-200h331v-63h-331v-234h-67z" />
    <glyph glyph-name="uniF767" unicode="&#xf767;" horiz-adv-x="603" 
d="M340 222v61h230v-207q-37 -39 -100 -61t-127 -22q-137 0 -224 79t-87 208q0 121 87 204t216 83q147 0 222 -83l-42 -44q-60 63 -175 63q-106 0 -172 -62t-66 -161q0 -102 67.5 -162.5t174.5 -60.5q99 0 163 50v115h-167z" />
    <glyph glyph-name="uniF768" unicode="&#xf768;" horiz-adv-x="634" 
d="M503 0v253h-371v-253h-67v560h67v-244h371v244h67v-560h-67z" />
    <glyph glyph-name="uniF769" unicode="&#xf769;" horiz-adv-x="212" 
d="M73 0v560h67v-560h-67z" />
    <glyph glyph-name="uniF76A" unicode="&#xf76a;" horiz-adv-x="413" 
d="M349 560v-392q0 -84 -47.5 -129.5t-128.5 -45.5q-65 0 -109.5 30t-65.5 71l50 38q47 -78 121 -77q56 1 84.5 29.5t28.5 95.5v380h67z" />
    <glyph glyph-name="uniF76B" unicode="&#xf76b;" horiz-adv-x="557" 
d="M65 0v560h67v-276l314 276h89l-285 -254l306 -306h-92l-264 261l-68 -58v-203h-67z" />
    <glyph glyph-name="uniF76C" unicode="&#xf76c;" horiz-adv-x="499" 
d="M65 0v560h67v-497h358v-63h-425z" />
    <glyph glyph-name="uniF76D" unicode="&#xf76d;" horiz-adv-x="709" 
d="M65 0v560h63l232 -286l223 286h61v-560h-67v449l-212 -270h-16l-217 269v-448h-67z" />
    <glyph glyph-name="uniF76E" unicode="&#xf76e;" horiz-adv-x="628" 
d="M563 0h-53l-380 441v-441h-65v560h54l379 -443v443h65v-560z" />
    <glyph glyph-name="uniF76F" unicode="&#xf76f;" horiz-adv-x="666" 
d="M32 280q0 121 87 204t215 83q127 0 213.5 -81.5t86.5 -205.5q0 -123 -87 -205t-213 -82q-127 0 -214.5 81.5t-87.5 205.5zM102 280q0 -96 67.5 -159.5t164.5 -63.5q98 0 164 63.5t66 159.5q0 97 -67 160t-163 63q-97 0 -164.5 -63t-67.5 -160z" />
    <glyph glyph-name="uniF770" unicode="&#xf770;" horiz-adv-x="554" 
d="M132 0h-67v560h215q242 0 242 -174q0 -76 -58 -126t-184 -50h-148v-210zM284 498h-152v-226h146q88 0 131 30.5t43 84.5q0 111 -168 111z" />
    <glyph glyph-name="uniF771" unicode="&#xf771;" horiz-adv-x="666" 
d="M32 280q0 121 87 204t215 83q127 0 213.5 -81.5t86.5 -205.5q0 -122 -96 -212l61 -68l-46 -38l-63 71q-69 -40 -156 -40q-129 0 -215.5 81.5t-86.5 205.5zM102 280q0 -96 67 -159.5t165 -63.5q60 0 116 29l-53 58l43 39l55 -63q69 63 69 160t-66.5 160t-163.5 63
q-98 0 -165 -63t-67 -160z" />
    <glyph glyph-name="uniF772" unicode="&#xf772;" horiz-adv-x="575" 
d="M132 0h-67v560h225q228 0 228 -166q0 -60 -41.5 -103t-109.5 -55l195 -236h-82l-183 223h-165v-223zM288 497h-156v-212h161q70 0 112.5 29.5t42.5 79.5q0 103 -160 103z" />
    <glyph glyph-name="uniF773" unicode="&#xf773;" horiz-adv-x="521" 
d="M416 148q0 39 -38.5 62t-93.5 35t-110 26.5t-93.5 50t-38.5 92.5q0 64 60.5 108.5t157.5 44.5q148 0 214 -80l-43 -43q-65 60 -173 60q-54 0 -100 -22t-46 -65q0 -39 38.5 -62.5t93 -35.5t109.5 -27t93.5 -49t38.5 -90q0 -71 -60 -115.5t-153 -44.5q-76 0 -143 31t-99 76
l45 47q30 -39 83.5 -65t121.5 -26q55 0 95.5 25t40.5 67z" />
    <glyph glyph-name="uniF774" unicode="&#xf774;" horiz-adv-x="494" 
d="M3 497v63h488v-63h-211v-497h-67v497h-210z" />
    <glyph glyph-name="uniF775" unicode="&#xf775;" horiz-adv-x="612" 
d="M555 560v-324q0 -62 -20.5 -110t-55.5 -76t-77 -42t-88 -14q-109 0 -183 65t-74 182v319h67v-309q0 -92 54.5 -143t135.5 -51q85 0 129.5 50.5t44.5 139.5v313h67z" />
    <glyph glyph-name="uniF776" unicode="&#xf776;" horiz-adv-x="605" 
d="M607 560l-273 -560h-49l-287 560h72l242 -466l225 466h70z" />
    <glyph glyph-name="uniF777" unicode="&#xf777;" horiz-adv-x="818" 
d="M816 560l-177 -560h-59l-168 446l-165 -446h-60l-185 560h70l149 -443l163 443h58l166 -442l142 442h66z" />
    <glyph glyph-name="uniF778" unicode="&#xf778;" horiz-adv-x="553" 
d="M533 560l-215 -275l223 -285h-81l-184 232l-182 -232h-81l223 285l-214 275h80l175 -222l176 222h80z" />
    <glyph glyph-name="uniF779" unicode="&#xf779;" horiz-adv-x="540" 
d="M541 560l-239 -316v-244h-67v244l-237 316h82l191 -253l194 253h76z" />
    <glyph glyph-name="uniF77A" unicode="&#xf77a;" horiz-adv-x="536" 
d="M28 497v63h482v-46l-399 -451h408v-63h-507v46l398 451h-382z" />
    <glyph glyph-name="uniF7A1" unicode="&#xf7a1;" horiz-adv-x="264" 
d="M99 0v406h65v-406h-65zM89 522q0 16 12 28t31 12q17 0 28.5 -12t11.5 -28q0 -14 -11.5 -25.5t-28.5 -11.5q-19 0 -31 11.5t-12 25.5z" />
    <glyph glyph-name="uniF7A8" unicode="&#xf7a8;" horiz-adv-x="469" 
d="M147 696q0 17 12 28.5t28 11.5t29.5 -11.5t13.5 -28.5q0 -19 -13 -30.5t-30 -11.5q-16 0 -28 11.5t-12 30.5zM384 696q0 17 13 28.5t31 11.5q15 0 28 -11.5t13 -28.5q0 -18 -13 -30t-28 -12q-19 0 -31.5 11.5t-12.5 30.5z" />
    <glyph glyph-name="uniF7AF" unicode="&#xf7af;" horiz-adv-x="446" 
d="M185 651v58h261v-58h-261z" />
    <glyph glyph-name="uniF7B4" unicode="&#xf7b4;" horiz-adv-x="455" 
d="M455 765l-119 -147l-42 29l111 155z" />
    <glyph glyph-name="uniF7B8" unicode="&#xf7b8;" horiz-adv-x="453" 
d="M240 -173l20 43q39 -21 75 -21q32 0 43 8t11 25q0 33 -57 33h-23v85h46v-41q49 -1 73.5 -22.5t24.5 -55.5q0 -36 -29.5 -59.5t-87.5 -23.5q-56 0 -96 29z" />
    <glyph glyph-name="uniF7BF" unicode="&#xf7bf;" horiz-adv-x="399" 
d="M89 144q0 -38 30 -62.5t78 -24.5q88 0 121 66l53 -24q-21 -51 -70.5 -78.5t-106.5 -27.5q-80 0 -126 40t-46 99q0 39 16.5 70.5t33.5 46.5t48 36q38 27 54 46t16 43q0 14 -3 34h59q6 -23 4 -44q-2 -27 -17 -50t-29.5 -35t-41.5 -31q-23 -16 -36.5 -27t-25 -32t-11.5 -45z
M259 522q0 -14 -11.5 -25.5t-30.5 -11.5q-17 0 -28.5 11.5t-11.5 25.5q0 16 11.5 28t28.5 12q19 0 30.5 -12t11.5 -28z" />
    <glyph glyph-name="uniF7E0" unicode="&#xf7e0;" horiz-adv-x="580" 
d="M2 0l261 561h54l261 -561h-71l-69 146h-300l-68 -146h-68zM288 468l-124 -263h249zM290 619l-121 145l51 38l110 -153z" />
    <glyph glyph-name="uniF7E1" unicode="&#xf7e1;" horiz-adv-x="580" 
d="M2 0l261 561h54l261 -561h-71l-69 146h-300l-68 -146h-68zM288 468l-124 -263h249zM416 765l-119 -147l-42 29l111 155z" />
    <glyph glyph-name="uniF7E2" unicode="&#xf7e2;" horiz-adv-x="580" 
d="M2 0l261 561h54l261 -561h-71l-69 146h-300l-68 -146h-68zM288 468l-124 -263h249zM291 784l143 -123l-36 -42l-108 97l-115 -94l-29 40l141 122h4z" />
    <glyph glyph-name="uniF7E3" unicode="&#xf7e3;" horiz-adv-x="580" 
d="M2 0l261 561h54l261 -561h-71l-69 146h-300l-68 -146h-68zM288 468l-124 -263h249zM160 637l-31 32q59 59 107 59q24 0 63 -24.5t59 -24.5q36 0 67 34l26 -33q-44 -57 -99 -57q-29 0 -65.5 25t-53.5 25q-30 0 -73 -36z" />
    <glyph glyph-name="uniF7E4" unicode="&#xf7e4;" horiz-adv-x="580" 
d="M2 0l261 561h54l261 -561h-71l-69 146h-300l-68 -146h-68zM288 468l-124 -263h249zM129 696q0 17 12 28.5t28 11.5t29.5 -11.5t13.5 -28.5q0 -19 -13 -30.5t-30 -11.5q-16 0 -28 11.5t-12 30.5zM366 696q0 17 13 28.5t31 11.5q15 0 28 -11.5t13 -28.5q0 -18 -13 -30
t-28 -12q-19 0 -31.5 11.5t-12.5 30.5z" />
    <glyph glyph-name="uniF7E5" unicode="&#xf7e5;" horiz-adv-x="580" 
d="M2 0l261 561h54l261 -561h-71l-69 146h-300l-68 -146h-68zM288 468l-124 -263h249zM190 706q0 41 28.5 70t70.5 29t71.5 -29t29.5 -70t-29.5 -69.5t-71.5 -28.5t-70.5 28.5t-28.5 69.5zM239 706q0 -21 14.5 -35.5t36.5 -14.5t36.5 13t14.5 37t-14 38t-37 14t-37 -14.5
t-14 -37.5z" />
    <glyph glyph-name="uniF7E6" unicode="&#xf7e6;" horiz-adv-x="941" 
d="M462 0v146h-272l-117 -146h-73l435 560h454v-63h-360v-182h336v-62h-336v-190h368v-63h-435zM232 205h230v294z" />
    <glyph glyph-name="uniF7E7" unicode="&#xf7e7;" horiz-adv-x="585" 
d="M238 -173l20 43q39 -21 75 -21q32 0 43 8t11 25q0 33 -57 33h-23v80q-127 9 -201 85.5t-74 199.5t82.5 205t217.5 82q76 0 135 -26t90 -65l-42 -43q-75 70 -183 70q-106 0 -168 -61.5t-62 -161.5t66.5 -161.5t174.5 -61.5q114 0 185 76l38 -43q-31 -42 -88 -68t-125 -29
v-34q49 -1 73.5 -22.5t24.5 -55.5q0 -36 -29.5 -59.5t-87.5 -23.5q-56 0 -96 29z" />
    <glyph glyph-name="uniF7E8" unicode="&#xf7e8;" horiz-adv-x="543" 
d="M65 0v560h426v-63h-359v-181h336v-63h-336v-190h368v-63h-435zM313 619l-121 145l51 38l110 -153z" />
    <glyph glyph-name="uniF7E9" unicode="&#xf7e9;" horiz-adv-x="543" 
d="M65 0v560h426v-63h-359v-181h336v-63h-336v-190h368v-63h-435zM403 765l-119 -147l-42 29l111 155z" />
    <glyph glyph-name="uniF7EA" unicode="&#xf7ea;" horiz-adv-x="543" 
d="M65 0v560h426v-63h-359v-181h336v-63h-336v-190h368v-63h-435zM285 784l143 -123l-36 -42l-108 97l-115 -94l-29 40l141 122h4z" />
    <glyph glyph-name="uniF7EB" unicode="&#xf7eb;" horiz-adv-x="543" 
d="M65 0v560h426v-63h-359v-181h336v-63h-336v-190h368v-63h-435zM114 696q0 17 12 28.5t28 11.5t29.5 -11.5t13.5 -28.5q0 -19 -13 -30.5t-30 -11.5q-16 0 -28 11.5t-12 30.5zM351 696q0 17 13 28.5t31 11.5q15 0 28 -11.5t13 -28.5q0 -18 -13 -30t-28 -12
q-19 0 -31.5 11.5t-12.5 30.5z" />
    <glyph glyph-name="uniF7EC" unicode="&#xf7ec;" horiz-adv-x="212" 
d="M73 0v560h67v-560h-67zM111 619l-121 145l51 38l110 -153z" />
    <glyph glyph-name="uniF7ED" unicode="&#xf7ed;" horiz-adv-x="212" 
d="M73 0v560h67v-560h-67zM228 765l-119 -147l-42 29l111 155z" />
    <glyph glyph-name="uniF7EE" unicode="&#xf7ee;" horiz-adv-x="212" 
d="M73 0v560h67v-560h-67zM108 784l143 -123l-36 -42l-108 97l-115 -94l-29 40l141 122h4z" />
    <glyph glyph-name="uniF7EF" unicode="&#xf7ef;" horiz-adv-x="212" 
d="M73 0v560h67v-560h-67zM-55 696q0 17 12 28.5t28 11.5t29.5 -11.5t13.5 -28.5q0 -19 -13 -30.5t-30 -11.5q-16 0 -28 11.5t-12 30.5zM182 696q0 17 13 28.5t31 11.5q15 0 28 -11.5t13 -28.5q0 -18 -13 -30t-28 -12q-19 0 -31.5 11.5t-12.5 30.5z" />
    <glyph glyph-name="uniF7F0" unicode="&#xf7f0;" horiz-adv-x="653" 
d="M8 250v56h105v254h182q168 0 247 -76t79 -196q0 -127 -84.5 -207.5t-249.5 -80.5h-174v250h-105zM293 497h-113v-191h166v-56h-166v-187h111q131 0 195.5 61t64.5 164q0 96 -62 152.5t-196 56.5z" />
    <glyph glyph-name="uniF7F1" unicode="&#xf7f1;" horiz-adv-x="628" 
d="M563 0h-53l-380 441v-441h-65v560h54l379 -443v443h65v-560zM183 637l-31 32q59 59 107 59q24 0 63 -24.5t59 -24.5q36 0 67 34l26 -33q-44 -57 -99 -57q-29 0 -65.5 25t-53.5 25q-30 0 -73 -36z" />
    <glyph glyph-name="uniF7F2" unicode="&#xf7f2;" horiz-adv-x="666" 
d="M32 280q0 121 87 204t215 83q127 0 213.5 -81.5t86.5 -205.5q0 -123 -87 -205t-213 -82q-127 0 -214.5 81.5t-87.5 205.5zM102 280q0 -96 67.5 -159.5t164.5 -63.5q98 0 164 63.5t66 159.5q0 97 -67 160t-163 63q-97 0 -164.5 -63t-67.5 -160zM324 619l-121 145l51 38
l110 -153z" />
    <glyph glyph-name="uniF7F3" unicode="&#xf7f3;" horiz-adv-x="666" 
d="M32 280q0 121 87 204t215 83q127 0 213.5 -81.5t86.5 -205.5q0 -123 -87 -205t-213 -82q-127 0 -214.5 81.5t-87.5 205.5zM102 280q0 -96 67.5 -159.5t164.5 -63.5q98 0 164 63.5t66 159.5q0 97 -67 160t-163 63q-97 0 -164.5 -63t-67.5 -160zM455 765l-119 -147l-42 29
l111 155z" />
    <glyph glyph-name="uniF7F4" unicode="&#xf7f4;" horiz-adv-x="666" 
d="M32 280q0 121 87 204t215 83q127 0 213.5 -81.5t86.5 -205.5q0 -123 -87 -205t-213 -82q-127 0 -214.5 81.5t-87.5 205.5zM102 280q0 -96 67.5 -159.5t164.5 -63.5q98 0 164 63.5t66 159.5q0 97 -67 160t-163 63q-97 0 -164.5 -63t-67.5 -160zM334 784l143 -123l-36 -42
l-108 97l-115 -94l-29 40l141 122h4z" />
    <glyph glyph-name="uniF7F5" unicode="&#xf7f5;" horiz-adv-x="666" 
d="M32 280q0 121 87 204t215 83q127 0 213.5 -81.5t86.5 -205.5q0 -123 -87 -205t-213 -82q-127 0 -214.5 81.5t-87.5 205.5zM102 280q0 -96 67.5 -159.5t164.5 -63.5q98 0 164 63.5t66 159.5q0 97 -67 160t-163 63q-97 0 -164.5 -63t-67.5 -160zM203 637l-31 32
q59 59 107 59q24 0 63 -24.5t59 -24.5q36 0 67 34l26 -33q-44 -57 -99 -57q-29 0 -65.5 25t-53.5 25q-30 0 -73 -36z" />
    <glyph glyph-name="uniF7F6" unicode="&#xf7f6;" horiz-adv-x="666" 
d="M32 280q0 121 87 204t215 83q127 0 213.5 -81.5t86.5 -205.5q0 -123 -87 -205t-213 -82q-127 0 -214.5 81.5t-87.5 205.5zM102 280q0 -96 67.5 -159.5t164.5 -63.5q98 0 164 63.5t66 159.5q0 97 -67 160t-163 63q-97 0 -164.5 -63t-67.5 -160zM172 696q0 17 12 28.5
t28 11.5t29.5 -11.5t13.5 -28.5q0 -19 -13 -30.5t-30 -11.5q-16 0 -28 11.5t-12 30.5zM409 696q0 17 13 28.5t31 11.5q15 0 28 -11.5t13 -28.5q0 -18 -13 -30t-28 -12q-19 0 -31.5 11.5t-12.5 30.5z" />
    <glyph glyph-name="uniF7F8" unicode="&#xf7f8;" horiz-adv-x="666" 
d="M76 27l42 48q-86 81 -86 205q0 121 87 204t215 83q93 0 168 -47l40 46l43 -35l-39 -45q88 -83 88 -206t-87 -205t-213 -82q-95 0 -170 47l-42 -50zM565 280q0 91 -63 154l-294 -343q57 -34 126 -34q98 0 164.5 63.5t66.5 159.5zM102 280q0 -90 61 -153l295 342
q-56 34 -124 34q-97 0 -164.5 -63t-67.5 -160z" />
    <glyph glyph-name="uniF7F9" unicode="&#xf7f9;" horiz-adv-x="612" 
d="M555 560v-324q0 -62 -20.5 -110t-55.5 -76t-77 -42t-88 -14q-109 0 -183 65t-74 182v319h67v-309q0 -92 54.5 -143t135.5 -51q85 0 129.5 50.5t44.5 139.5v313h67zM304 619l-121 145l51 38l110 -153z" />
    <glyph glyph-name="uniF7FA" unicode="&#xf7fa;" horiz-adv-x="612" 
d="M555 560v-324q0 -62 -20.5 -110t-55.5 -76t-77 -42t-88 -14q-109 0 -183 65t-74 182v319h67v-309q0 -92 54.5 -143t135.5 -51q85 0 129.5 50.5t44.5 139.5v313h67zM425 765l-119 -147l-42 29l111 155z" />
    <glyph glyph-name="uniF7FB" unicode="&#xf7fb;" horiz-adv-x="612" 
d="M555 560v-324q0 -62 -20.5 -110t-55.5 -76t-77 -42t-88 -14q-109 0 -183 65t-74 182v319h67v-309q0 -92 54.5 -143t135.5 -51q85 0 129.5 50.5t44.5 139.5v313h67zM307 784l143 -123l-36 -42l-108 97l-115 -94l-29 40l141 122h4z" />
    <glyph glyph-name="uniF7FC" unicode="&#xf7fc;" horiz-adv-x="612" 
d="M555 560v-324q0 -62 -20.5 -110t-55.5 -76t-77 -42t-88 -14q-109 0 -183 65t-74 182v319h67v-309q0 -92 54.5 -143t135.5 -51q85 0 129.5 50.5t44.5 139.5v313h67zM145 696q0 17 12 28.5t28 11.5t29.5 -11.5t13.5 -28.5q0 -19 -13 -30.5t-30 -11.5q-16 0 -28 11.5
t-12 30.5zM382 696q0 17 13 28.5t31 11.5q15 0 28 -11.5t13 -28.5q0 -18 -13 -30t-28 -12q-19 0 -31.5 11.5t-12.5 30.5z" />
    <glyph glyph-name="uniF7FD" unicode="&#xf7fd;" horiz-adv-x="540" 
d="M541 560l-239 -316v-244h-67v244l-237 316h82l191 -253l194 253h76zM388 765l-119 -147l-42 29l111 155z" />
    <glyph glyph-name="uniF7FE" unicode="&#xf7fe;" horiz-adv-x="554" 
d="M132 0h-67v560h67v-92h148q242 0 242 -173q0 -76 -58.5 -126.5t-183.5 -50.5h-148v-118zM284 406h-152v-226h146q88 0 131.5 31t43.5 84q0 111 -169 111z" />
    <glyph glyph-name="uniF7FF" unicode="&#xf7ff;" horiz-adv-x="540" 
d="M541 560l-239 -316v-244h-67v244l-237 316h82l191 -253l194 253h76zM108 696q0 17 12 28.5t28 11.5t29.5 -11.5t13.5 -28.5q0 -19 -13 -30.5t-30 -11.5q-16 0 -28 11.5t-12 30.5zM345 696q0 17 13 28.5t31 11.5q15 0 28 -11.5t13 -28.5q0 -18 -13 -30t-28 -12
q-19 0 -31.5 11.5t-12.5 30.5z" />
    <glyph glyph-name="uniFE56" unicode="&#xfe56;" horiz-adv-x="399" 
d="M304 416q0 38 -29.5 62.5t-77.5 24.5q-89 0 -121 -65l-54 24q21 51 70.5 78t107.5 27q79 0 125 -39.5t46 -99.5q0 -39 -16.5 -70.5t-33.5 -46.5t-47 -36q-38 -27 -54 -45.5t-16 -42.5q0 -18 4 -34h-59q-7 26 -5 44q3 39 25 63.5t63 51.5q36 24 54 46.5t18 57.5zM134 38
q0 15 12 26.5t31 11.5q17 0 28.5 -11.5t11.5 -26.5q0 -16 -11.5 -28t-28.5 -12q-19 0 -31 12t-12 28z" />
    <glyph glyph-name="uniFE57" unicode="&#xfe57;" horiz-adv-x="264" 
d="M99 154v406h65v-406h-65zM89 38q0 15 12 26.5t31 11.5q17 0 28.5 -11.5t11.5 -26.5q0 -16 -11.5 -28t-28.5 -12q-19 0 -31 12t-12 28z" />
    <glyph glyph-name="uniFEFF" unicode="&#xfeff;" horiz-adv-x="0" 
 />
    <glyph glyph-name="nbspace" horiz-adv-x="300" 
 />
    <glyph glyph-name="caron.l" horiz-adv-x="192" 
d="M94 725h66q11 -24 11 -62q0 -44 -26 -82.5t-59 -59.5l-29 28q23 17 38.5 48t15.5 57q0 48 -17 71z" />
    <glyph glyph-name="caron.lsmall" horiz-adv-x="192" 
d="M94 560h66q11 -24 11 -63q0 -44 -26 -82t-59 -59l-29 28q23 17 38.5 48t15.5 57q0 46 -17 71z" />
    <glyph glyph-name="amacron.ss02" horiz-adv-x="596" 
d="M465 0v69q-17 -29 -62.5 -53.5t-108.5 -24.5q-117 0 -188.5 72.5t-71.5 195.5q0 120 77 197t190 77q107 0 164 -59v46h65v-520h-65zM300 53q61 0 103.5 35.5t61.5 76.5v223q-54 83 -162 83q-82 0 -141 -58.5t-59 -151.5q0 -95 55 -151.5t142 -56.5zM193 647v59h261v-59
h-261z" />
    <glyph glyph-name="agrave.ss02" horiz-adv-x="596" 
d="M465 0v69q-17 -29 -62.5 -53.5t-108.5 -24.5q-117 0 -188.5 72.5t-71.5 195.5q0 120 77 197t190 77q107 0 164 -59v46h65v-520h-65zM300 53q61 0 103.5 35.5t61.5 76.5v223q-54 83 -162 83q-82 0 -141 -58.5t-59 -151.5q0 -95 55 -151.5t142 -56.5zM343 615l-121 145
l50 39l110 -154z" />
    <glyph glyph-name="uniF37C.ss01" horiz-adv-x="557" 
d="M65 0v560h67v-244h79l235 244h89l-264 -269l285 -291h-89l-248 254h-87v-254h-67zM381 765l-119 -147l-42 29l111 155z" />
    <glyph glyph-name="afii10109.ss01" horiz-adv-x="525" 
d="M66 0v520h65v-235h63l225 235h89l-250 -256l266 -264h-90l-226 223h-77v-223h-65zM390 762l-118 -148l-42 30l110 155z" />
    <glyph glyph-name="afii10076.ss01" horiz-adv-x="525" 
d="M66 0v520h65v-235h63l225 235h89l-250 -256l266 -264h-90l-226 223h-77v-223h-65z" />
    <glyph glyph-name="afii10065.ss02" horiz-adv-x="596" 
d="M465 0v69q-17 -29 -62.5 -53.5t-108.5 -24.5q-117 0 -188.5 72.5t-71.5 195.5q0 120 77 197t190 77q107 0 164 -59v46h65v-520h-65zM300 53q61 0 103.5 35.5t61.5 76.5v223q-54 83 -162 83q-82 0 -141 -58.5t-59 -151.5q0 -95 55 -151.5t142 -56.5z" />
    <glyph glyph-name="uniF76B.ss01" horiz-adv-x="557" 
d="M65 0v560h67v-243h79l235 243h89l-264 -269l285 -291h-89l-248 254h-87v-254h-67z" />
    <glyph glyph-name="k.ss01" horiz-adv-x="521" 
d="M66 0v730h65v-434h58l222 224h89l-246 -246l266 -274h-87l-232 234h-70v-234h-65z" />
    <glyph glyph-name="Kcommaaccent.ss01" horiz-adv-x="650" 
d="M77 0v700h71v-322h93l288 322h93l-310 -344l336 -356h-94l-302 312h-104v-312h-71zM296 -86l54 37q35 -35 35 -75q0 -42 -23 -76t-51 -51l-30 27q41 39 41 83q0 31 -26 55z" />
    <glyph glyph-name="afii10065.var.accented.ss02" horiz-adv-x="596" 
d="M465 0v69q-17 -29 -62.5 -53.5t-108.5 -24.5q-117 0 -188.5 72.5t-71.5 195.5q0 120 77 197t190 77q107 0 164 -59v46h65v-520h-65zM300 53q61 0 103.5 35.5t61.5 76.5v223q-54 83 -162 83q-82 0 -141 -58.5t-59 -151.5q0 -95 55 -151.5t142 -56.5zM451 762l-118 -148
l-42 30l110 155z" />
    <glyph glyph-name="K.ss01" horiz-adv-x="650" 
d="M77 0v700h71v-322h93l288 322h93l-310 -344l336 -356h-94l-302 312h-104v-312h-71z" />
    <glyph glyph-name="afii10072.ss01" horiz-adv-x="753" 
d="M409 223v-223h-65v223h-72l-187 -223h-82l220 263l-209 257h82l190 -235h58v235h65v-235h58l190 235h82l-207 -256l218 -264h-82l-187 223h-72z" />
    <glyph glyph-name="kcommaaccent.ss01" horiz-adv-x="521" 
d="M66 0v730h65v-434h58l222 224h89l-246 -246l266 -274h-87l-232 234h-70v-234h-65zM236 -86l54 37q35 -35 35 -75q0 -42 -23 -76t-51 -51l-30 27q41 39 41 83q0 31 -26 55z" />
    <glyph glyph-name="atilde.ss02" horiz-adv-x="596" 
d="M465 0v69q-17 -29 -62.5 -53.5t-108.5 -24.5q-117 0 -188.5 72.5t-71.5 195.5q0 120 77 197t190 77q107 0 164 -59v46h65v-520h-65zM300 53q61 0 103.5 35.5t61.5 76.5v223q-54 83 -162 83q-82 0 -141 -58.5t-59 -151.5q0 -95 55 -151.5t142 -56.5zM191 632l-31 32
q59 59 107 59q24 0 63 -25t59 -25q35 0 67 35l26 -33q-44 -57 -99 -57q-29 0 -65.5 25t-53.5 25q-30 0 -73 -36z" />
    <glyph glyph-name="aring.ss02" horiz-adv-x="596" 
d="M465 0v69q-17 -29 -62.5 -53.5t-108.5 -24.5q-117 0 -188.5 72.5t-71.5 195.5q0 120 77 197t190 77q107 0 164 -59v46h65v-520h-65zM300 53q61 0 103.5 35.5t61.5 76.5v223q-54 83 -162 83q-82 0 -141 -58.5t-59 -151.5q0 -95 55 -151.5t142 -56.5zM219 701q0 41 29 70
t71 29t71.5 -29t29.5 -70t-29.5 -69.5t-71.5 -28.5t-71 28.5t-29 69.5zM269 701q0 -21 14 -35.5t36 -14.5q23 0 37 13t14 37t-14 37.5t-37 13.5q-22 0 -36 -14.5t-14 -36.5z" />
    <glyph glyph-name="adieresis.ss02" horiz-adv-x="596" 
d="M465 0v69q-17 -29 -62.5 -53.5t-108.5 -24.5q-117 0 -188.5 72.5t-71.5 195.5q0 120 77 197t190 77q107 0 164 -59v46h65v-520h-65zM300 53q61 0 103.5 35.5t61.5 76.5v223q-54 83 -162 83q-82 0 -141 -58.5t-59 -151.5q0 -95 55 -151.5t142 -56.5zM152 689q0 17 12 28.5
t28 11.5q17 0 30 -11.5t13 -28.5q0 -19 -13 -30.5t-30 -11.5q-16 0 -28 11.5t-12 30.5zM389 689q0 18 12.5 29t30.5 11q16 0 29 -11.5t13 -28.5q0 -19 -13 -30.5t-29 -11.5q-18 0 -30.5 11.5t-12.5 30.5z" />
    <glyph glyph-name="aogonek.ss02" horiz-adv-x="612" 
d="M527 -135l19 -47q-31 -18 -72 -18q-43 0 -75.5 25t-32.5 73q0 39 28.5 68t70.5 44v59q-17 -29 -62.5 -53.5t-108.5 -24.5q-117 0 -188.5 72.5t-71.5 195.5q0 120 77 197t190 77q107 0 164 -59v46h65v-520q-32 0 -64.5 -26.5t-32.5 -63.5q0 -23 14 -38.5t34 -15.5
q27 0 46 9zM300 53q61 0 103.5 35.5t61.5 76.5v223q-54 83 -162 83q-82 0 -141 -58.5t-59 -151.5q0 -95 55 -151.5t142 -56.5z" />
    <glyph glyph-name="acircumflex.ss02" horiz-adv-x="596" 
d="M465 0v69q-17 -29 -62.5 -53.5t-108.5 -24.5q-117 0 -188.5 72.5t-71.5 195.5q0 120 77 197t190 77q107 0 164 -59v46h65v-520h-65zM300 53q61 0 103.5 35.5t61.5 76.5v223q-54 83 -162 83q-82 0 -141 -58.5t-59 -151.5q0 -95 55 -151.5t142 -56.5zM316 781l143 -123
l-36 -42l-109 97l-114 -94l-29 40l141 122h4z" />
    <glyph glyph-name="uniF356.ss01" horiz-adv-x="784" 
d="M426 254v-254h-67v254h-71l-204 -254h-82l230 291l-225 269h86l203 -243h63v243h67v-243h63l203 243h82l-221 -269l230 -291h-82l-204 254h-71z" />
    <glyph glyph-name="abreve.ss02" horiz-adv-x="596" 
d="M465 0v69q-17 -29 -62.5 -53.5t-108.5 -24.5q-117 0 -188.5 72.5t-71.5 195.5q0 120 77 197t190 77q107 0 164 -59v46h65v-520h-65zM300 53q61 0 103.5 35.5t61.5 76.5v223q-54 83 -162 83q-82 0 -141 -58.5t-59 -151.5q0 -95 55 -151.5t142 -56.5zM175 733l29 31
q17 -21 52 -40t70 -19q76 0 122 58l24 -30q-61 -90 -147 -90q-50 0 -90 30t-60 60z" />
    <glyph glyph-name="afii10028.ss01" horiz-adv-x="650" 
d="M77 0v700h71v-322h93l288 322h93l-315 -344l341 -356h-94l-302 312h-104v-312h-71z" />
    <glyph glyph-name="aacute.ss02" horiz-adv-x="596" 
d="M465 0v69q-17 -29 -62.5 -53.5t-108.5 -24.5q-117 0 -188.5 72.5t-71.5 195.5q0 120 77 197t190 77q107 0 164 -59v46h65v-520h-65zM300 53q61 0 103.5 35.5t61.5 76.5v223q-54 83 -162 83q-82 0 -141 -58.5t-59 -151.5q0 -95 55 -151.5t142 -56.5zM451 762l-118 -148
l-42 30l110 155z" />
    <glyph glyph-name="uniF35A.ss01" horiz-adv-x="557" 
d="M65 0v560h67v-244h79l235 244h89l-264 -269l285 -291h-89l-248 254h-87v-254h-67z" />
    <glyph glyph-name="a.ss02" horiz-adv-x="596" 
d="M465 0v69q-17 -29 -62.5 -53.5t-108.5 -24.5q-117 0 -188.5 72.5t-71.5 195.5q0 120 77 197t190 77q107 0 164 -59v46h65v-520h-65zM300 53q61 0 103.5 35.5t61.5 76.5v223q-54 83 -162 83q-82 0 -141 -58.5t-59 -151.5q0 -95 55 -151.5t142 -56.5z" />
    <glyph glyph-name="afii10024.ss01" horiz-adv-x="916" 
d="M423 0v312h-83l-251 -312h-86l279 352l-272 348h86l256 -322h71v322h71v-322h71l256 322h86l-275 -347l281 -353h-85l-251 312h-83v-312h-71z" />
    <glyph glyph-name="afii10061.ss01" horiz-adv-x="650" 
d="M77 0v700h71v-322h93l288 322h93l-310 -344l336 -356h-94l-302 312h-104v-312h-71zM467 853l-188 -91l-23 42l183 107z" />
    <glyph glyph-name="uniF689.ss01" horiz-adv-x="557" 
d="M65 0v560h67v-243h79l235 243h89l-264 -269l285 -291h-89l-248 254h-87v-254h-67zM243 -86l54 37q35 -35 35 -75q0 -42 -23 -76t-51 -51l-30 27q41 39 41 83q0 31 -26 55z" />
    </font>
</defs>
</svg>
