<?xml version="1.0" standalone="no"?>
<!DOCTYPE svg PUBLIC "-//W3C//DTD SVG 1.1//EN" "http://www.w3.org/Graphics/SVG/1.1/DTD/svg11.dtd" >
<svg xmlns="http://www.w3.org/2000/svg">
    <metadata>Generated by IcoMoon</metadata>
    <defs>
        <font id="icomoon" horiz-adv-x="1024">
            <font-face units-per-em="1024" ascent="960" descent="-64" />
            <missing-glyph horiz-adv-x="1024" />
            <glyph unicode="&#x20;" horiz-adv-x="512" d="" />
            <glyph unicode="&#xe900;" glyph-name="loupe2" d="M999.59 82.46l-181.855 181.855c47.6 70.789 75.671 157.445 75.671 248.982 0 119.609-46.379 231.895-130.594 316.11s-196.501 130.594-316.11 130.594c-246.541 0-446.703-200.162-446.703-446.703s200.162-446.703 446.703-446.703c92.758 0 178.193 28.072 248.982 75.671l180.634-180.634c17.087-17.087 39.056-25.631 61.025-25.631s43.938 8.544 61.025 25.631c34.174 32.954 34.174 87.876 1.221 120.83zM446.703 152.029c-198.942 0-361.268 162.327-361.268 361.268s162.327 360.048 361.268 360.048c96.42 0 186.737-37.836 255.085-106.184s106.184-158.665 106.184-255.085c0-197.721-162.327-360.048-361.268-360.048z" />
            <glyph unicode="&#xe901;" glyph-name="question-mark" horiz-adv-x="920" d="M778.169 960h-636.684c-77.817 0-141.485-61.9-141.485-139.717v-601.313c0-77.817 63.668-143.254 141.485-143.254h194.542l95.503-125.568c7.074-8.843 17.686-14.149 28.297-14.149s21.223 5.306 28.297 14.149l95.503 125.568h194.542c77.817 0 141.485 65.437 141.485 143.254v601.313c0 77.817-63.668 139.717-141.485 139.717zM848.912 218.971c0-38.908-31.834-72.511-70.743-72.511h-212.228c-10.611 0-21.223-3.537-28.297-12.38l-77.817-104.345-77.817 102.577c-7.074 8.843-17.686 14.149-28.297 14.149h-212.228c-38.908 0-70.743 33.603-70.743 72.511v601.313c0 38.908 31.834 68.974 70.743 68.974h636.684c38.908 0 70.743-30.066 70.743-68.974v-601.313zM424.456 217.202h70.743v70.743h-70.743v-70.743zM459.827 784.912c-79.585 0-166.245-53.057-176.857-173.32l70.743-7.074c8.843 104.345 90.197 109.651 106.114 109.651 24.76 0 106.114-7.074 106.114-90.197 0-44.214-22.991-65.437-61.9-97.271-35.371-28.297-79.585-65.437-79.585-130.874v-37.14h70.743v37.14c0 30.066 19.454 47.751 53.057 76.048 38.908 31.834 88.428 72.511 88.428 152.097 0 97.271-70.743 160.94-176.857 160.94z" />
            <glyph unicode="&#xe902;" glyph-name="clock-circle" horiz-adv-x="1408" d="M896.256 960c-280.512 0-508.768-228.224-508.768-508.768 0-280.448 228.224-508.704 508.768-508.704s508.736 228.224 508.736 508.736c0 280.512-228.224 508.736-508.736 508.736zM896.256 27.872c-233.472 0-423.424 189.952-423.424 423.36 0 233.472 189.952 423.424 423.424 423.424s423.392-189.92 423.392-423.392c0-233.44-189.92-423.392-423.392-423.392zM938.912 468.96v295.552c0 23.552-19.104 42.656-42.656 42.656s-42.656-19.104-42.656-42.656v-313.216c0-5.568 1.152-10.88 3.104-15.808 0.032-0.128 0.064-0.224 0.096-0.352 2.176-5.344 5.376-10.144 9.472-14.176l144-144c8.32-8.32 19.296-12.448 30.208-12.448s21.856 4.16 30.176 12.448c16.672 16.672 16.672 43.648 0 60.32l-131.712 131.68zM108.992 587.008h188.384c23.584 0 42.656 19.104 42.656 42.656s-19.072 42.656-42.656 42.656h-188.384c-23.584 0-42.656-19.104-42.656-42.656s19.072-42.656 42.656-42.656zM302.176 451.264c0 23.552-19.072 42.656-42.656 42.656h-216.832c-23.584 0-42.656-19.104-42.656-42.656s19.072-42.656 42.656-42.656h216.832c23.584 0 42.656 19.104 42.656 42.656zM260.672 765.408h131.488c23.584 0 42.656 19.104 42.656 42.656s-19.072 42.656-42.656 42.656h-131.488c-23.584 0-42.656-19.104-42.656-42.656s19.072-42.656 42.656-42.656zM340.064 272.832c0 23.552-19.072 42.656-42.656 42.656h-188.384c-23.584 0-42.656-19.104-42.656-42.656s19.072-42.656 42.656-42.656h188.384c23.584 0 42.656 19.072 42.656 42.656zM392.16 137.088h-131.488c-23.584 0-42.656-19.104-42.656-42.656s19.072-42.656 42.656-42.656h131.488c23.584 0 42.656 19.104 42.656 42.656s-19.072 42.656-42.656 42.656z" />
            <glyph unicode="&#xe903;" glyph-name="garantee" d="M628.832 539.296l-172.736-172.736-61.248 61.696c-4.704 3.456-10.624 5.504-17.024 5.504-16.032 0-29.024-12.992-29.024-29.024 0-6.496 2.144-12.512 5.76-17.344l81.376-81.792c5.248-4.992 12.352-8.128 20.16-8.288 0.256 0 0.48 0 0.736 0 7.648 0 14.528 3.168 19.456 8.288l192.896 193.056c5.184 5.248 8.384 12.448 8.384 20.384s-3.2 15.168-8.384 20.384c-5.088 5.28-12.192 8.576-20.096 8.576-7.968 0-15.168-3.328-20.224-8.704zM955.552 619.552v136.576c0.096 1.12 0.16 2.464 0.16 3.776 0 25.696-20.544 46.592-46.112 47.168-7.904 1.312-16.16 2.048-23.84 2.912-27.392 2.784-51.392 6.592-74.976 11.552-83.808 18.496-168.288 57.984-261.6 123.008-9.952 8.736-22.72 14.464-36.768 15.648-14.272-0.928-26.88-6.24-36.928-14.592-125.024-87.008-238.080-130.56-355.776-137.376-35.84-2.464-51.392-18.88-51.392-55.584v-88.832c0-81.856 0-166.624 0.864-250.080 0.064-32.224 4.032-63.488 11.456-93.376 15.552-69.888 53.28-133.92 114.24-195.584 77.792-78.24 175.328-138.624 298.272-185.216 5.504-2.112 11.872-3.328 18.496-3.328 0.032 0 0.064 0 0.064 0 0.416 0 0.896-0.032 1.408-0.032 8.032 0 15.68 1.664 22.624 4.672l21.408 9.28c30.048 12.768 61.248 26.272 91.296 41.952 99.136 52.672 174.176 114.368 229.184 188.672 43.264 55.008 71.072 124 75.872 199.232 0.928 15.552 1.376 30.080 1.376 45.888v0.864l1.44 139.2v4.512zM898.24 573.12v0-5.376l-1.312-134.976v-4.928c0-16.096 0-30.496-0.864-43.552-4.48-64.576-28.416-122.784-65.92-169.696-55.168-71.36-125.056-129.472-205.248-170.24-31.456-16.096-61.504-29.152-90.528-41.504l-21.76-9.44c-114.368 43.552-204.928 99.136-275.776 171.552-67.136 62.144-109.12 150.592-109.44 248.864-0.864 83.232-0.864 167.552-0.864 249.408v87.072c126.72 8.128 249.216 55.584 381.44 147.328 1.536 0.896 2.88 1.856 4.096 2.912l4.032-2.912c98.272-68.64 192.608-112.352 286.816-132.96 20.8-4.576 46.752-8.64 73.12-11.232l22.24-2.688v-177.664z" />
            <glyph unicode="&#xe904;" glyph-name="smile-anger" horiz-adv-x="832" d="M679.040 693.856c-144.96 144.96-381.12 144.96-527.584 0-144.96-144.96-144.96-381.12 0-527.584 73.216-73.216 167.392-109.088 263.040-109.088s191.296 35.872 263.040 109.088c147.968 146.464 147.968 382.592 1.504 527.584zM628.224 218.592c-116.576-116.576-306.368-116.576-422.944 0s-116.576 306.368 0 422.944c58.272 58.272 134.496 88.192 212.224 88.192 76.224 0 153.952-29.888 212.224-88.192 115.072-115.072 115.072-306.368-1.504-422.944zM416 374.016c-50.816 0-98.624-22.432-131.52-59.776-13.44-14.944-11.968-38.848 2.976-52.32s38.848-11.968 52.32 2.976c38.848 44.832 113.6 44.832 152.448 0 7.488-8.96 17.92-11.968 28.384-11.968 8.96 0 17.92 2.976 23.904 8.96 14.944 13.44 16.448 35.872 2.976 52.32-32.864 37.376-80.704 59.776-131.52 59.776zM311.392 435.296c5.984-5.984 14.944-8.96 22.432-8.96 8.96 0 17.92 2.976 23.904 10.464 11.968 13.44 11.968 34.368-1.504 46.336l-20.928 20.928 20.928 20.928c13.44 11.968 13.44 32.864 1.504 46.336s-32.864 13.44-46.336 1.504l-23.904-22.432-23.904 22.432c-13.44 11.968-34.368 11.968-46.336-1.504s-11.968-34.368 1.504-46.336l20.928-20.928-20.928-20.928c-13.44-11.968-13.44-32.864-1.504-46.336 5.984-7.488 14.944-10.464 23.904-10.464 7.488 0 16.448 2.976 22.432 8.96l23.904 22.432 23.904-22.432zM617.76 569.792c-11.968 13.44-32.864 13.44-46.336 1.504l-23.904-22.432-23.904 22.432c-13.44 11.968-34.368 11.968-46.336-1.504s-11.968-34.368 1.504-46.336l20.928-20.928-20.928-20.928c-13.44-11.968-13.44-32.864-1.504-46.336 5.984-7.488 14.944-10.464 23.904-10.464 7.488 0 16.448 2.976 22.432 8.96l23.904 22.432 23.904-22.432c5.984-5.984 14.944-8.96 22.432-8.96 8.96 0 17.92 2.976 23.904 10.464 11.968 13.44 11.968 34.368-1.504 46.336l-20.928 20.928 20.928 20.928c13.44 11.968 13.44 32.864 1.504 46.336z" />
            <glyph unicode="&#xe905;" glyph-name="smile-cool" horiz-adv-x="832" d="M562.016 399.296h-293.472c-11.968 0-23.968-8.992-31.456-19.456s-5.984-25.44-1.504-37.44c34.432-68.864 103.296-112.288 179.68-112.288s145.248 41.92 179.68 110.784c5.984 11.968 4.48 26.944-1.504 37.44-7.488 11.968-19.456 20.96-31.456 20.96zM291.008 508.608c0 11.968 20.96 11.968 20.96 0 0-22.464 17.952-41.92 41.92-41.92s41.92 17.952 41.92 41.92c0 50.912-41.92 92.832-92.832 92.832s-92.832-41.92-92.832-92.832c0-22.464 17.952-41.92 41.92-41.92s38.912 19.456 38.912 41.92zM529.024 601.44c-50.912 0-92.832-41.92-92.832-92.832 0-22.464 17.952-41.92 41.92-41.92 22.464 0 41.92 17.952 41.92 41.92 0 11.968 20.96 11.968 20.96 0 0-22.464 17.952-41.92 41.92-41.92s41.92 17.952 41.92 41.92c-3.008 50.912-44.928 92.832-95.84 92.832zM415.232 56.448c-95.84 0-191.648 35.936-263.52 109.312-145.248 145.248-145.248 381.792 0 528.544 145.248 145.248 381.792 145.248 528.544 0 145.248-145.248 145.248-381.792 0-528.544-73.376-73.376-169.184-109.312-265.024-109.312zM415.232 728.704c-76.352 0-154.208-29.952-212.608-88.352-116.8-116.8-116.8-306.944 0-423.712s306.944-116.8 423.712 0c116.8 116.8 116.8 306.944 0 423.712-56.896 59.904-134.752 88.352-211.104 88.352z" />
            <glyph unicode="&#xe906;" glyph-name="smile-like" horiz-adv-x="832" d="M415.232 228.608c-76.352 0-145.248 43.424-179.68 112.288-8.992 17.952-1.504 40.416 16.48 49.408s40.416 1.504 49.408-16.48c20.96-43.424 64.384-70.368 113.792-70.368s91.328 26.944 113.792 70.368c8.992 17.952 31.456 25.44 49.408 16.48s25.44-31.456 16.48-49.408c-34.432-68.864-103.296-112.288-179.68-112.288zM352.352 510.112c0-28.928-23.456-52.416-52.416-52.416s-52.416 23.456-52.416 52.416c0 28.928 23.456 52.416 52.416 52.416s52.416-23.456 52.416-52.416zM582.976 510.112c0-28.928-23.456-52.416-52.416-52.416s-52.416 23.456-52.416 52.416c0 28.928 23.456 52.416 52.416 52.416s52.416-23.456 52.416-52.416zM415.232 56.448c-95.84 0-191.648 35.936-263.52 109.312-145.248 145.248-145.248 381.792 0 528.544 145.248 145.248 381.792 145.248 528.544 0 145.248-145.248 145.248-381.792 0-528.544v0c-73.376-73.376-169.184-109.312-265.024-109.312zM415.232 728.704c-76.352 0-154.208-29.952-212.608-88.352-116.8-116.8-116.8-306.944 0-423.712s306.944-116.8 423.712 0c116.8 116.8 116.8 306.944 0 423.712-56.896 59.904-134.752 88.352-211.104 88.352zM653.312 191.2v0 0z" />
            <glyph unicode="&#xe907;" glyph-name="smile-normal" horiz-adv-x="832" d="M352.352 510.112c0-28.928-23.456-52.416-52.416-52.416s-52.416 23.456-52.416 52.416c0 28.928 23.456 52.416 52.416 52.416s52.416-23.456 52.416-52.416zM582.976 510.112c0-28.928-23.456-52.416-52.416-52.416s-52.416 23.456-52.416 52.416c0 28.928 23.456 52.416 52.416 52.416s52.416-23.456 52.416-52.416zM415.232 56.448c-95.84 0-191.648 35.936-263.52 109.312-145.248 145.248-145.248 381.792 0 528.544 145.248 145.248 381.792 145.248 528.544 0 145.248-145.248 145.248-381.792 0-528.544-73.376-73.376-169.184-109.312-265.024-109.312zM415.232 728.704c-76.352 0-154.208-29.952-212.608-88.352-116.8-116.8-116.8-306.944 0-423.712s306.944-116.8 423.712 0c116.8 116.8 116.8 306.944 0 423.712-56.896 59.904-134.752 88.352-211.104 88.352zM545.504 269.056h-260.512c-20.96 0-37.44 16.48-37.44 37.44v0c0 20.96 16.48 37.44 37.44 37.44h260.512c20.96 0 37.44-16.48 37.44-37.44v0c0-20.96-16.48-37.44-37.44-37.44z" />
            <glyph unicode="&#xe908;" glyph-name="smile-sad" horiz-adv-x="832" d="M520.096 269.056c-10.496 0-20.96 4.48-26.944 11.968-38.912 44.928-113.792 44.928-152.736 0-13.472-14.976-35.936-16.48-52.416-3.008-14.976 13.472-16.48 35.936-3.008 52.416 32.928 37.44 80.864 59.904 131.744 59.904s98.816-22.464 131.744-59.904c13.472-14.976 11.968-38.912-3.008-52.416-8.992-5.984-17.952-8.992-25.44-8.992zM352.352 510.112c0-28.928-23.456-52.416-52.416-52.416s-52.416 23.456-52.416 52.416c0 28.928 23.456 52.416 52.416 52.416s52.416-23.456 52.416-52.416zM582.976 510.112c0-28.928-23.456-52.416-52.416-52.416s-52.416 23.456-52.416 52.416c0 28.928 23.456 52.416 52.416 52.416s52.416-23.456 52.416-52.416zM415.232 56.448c-95.84 0-191.648 35.936-263.52 109.312-145.248 145.248-145.248 381.792 0 528.544 145.248 145.248 381.792 145.248 528.544 0 145.248-145.248 145.248-381.792 0-528.544-73.376-73.376-169.184-109.312-265.024-109.312zM415.232 728.704c-76.352 0-154.208-29.952-212.608-88.352-116.8-116.8-116.8-306.944 0-423.712s306.944-116.8 423.712 0c116.8 116.8 116.8 306.944 0 423.712-56.896 59.904-134.752 88.352-211.104 88.352z" />
            <glyph unicode="&#xe909;" glyph-name="instruments" horiz-adv-x="1088" d="M421.6 174.304l-131.904-147.936c-17.312-19.456-41.152-30.944-67.104-32.416-25.792-1.312-50.912 7.328-70.272 24.704-40 35.84-43.424 97.664-7.904 137.568 2.56 2.784 5.28 5.504 8.352 8.288 1.184 1.12 120.64 114.208 203.040 188.032 9.12 8.192 9.888 22.208 1.76 31.36-8.192 9.184-22.176 9.888-31.264 1.76-82.88-74.272-202.784-187.744-203.648-188.608-3.68-3.36-7.36-7.008-11.040-11.008-52.032-58.4-47.040-148.32 11.168-200.512 26.176-23.456 59.328-36.128 94.144-36.128 2.72 0 5.408 0.064 8.128 0.256 37.728 2.144 72.416 18.88 97.632 47.136l131.936 147.936c8.16 9.152 7.36 23.168-1.76 31.328-9.12 8.128-23.136 7.392-31.264-1.76zM1049.536 863.392c-6.272 10.624-16.768 16.544-28.288 16.16-11.776-0.544-23.168-8.224-28.192-18.848-2.56-5.216-46.304-96.64-46.304-96.64-3.904-8.192-9.568-13.152-17.312-15.232-12.096-3.264-29.504 0.32-50.368 10.304-20.8 9.984-34.464 21.344-39.488 32.832-3.232 7.328-2.88 14.88 1.024 23.072l46.24 96.48c8.096 17.056 1.568 28.992-1.568 33.312-6.496 8.864-17.664 13.44-29.12 11.84-36-4.736-120.32-15.776-164.448-108.096-22.24-46.272-23.872-95.328-4.832-141.696 1.12-2.976-1.248-5.056-2.528-6.24-0.992-0.896-4.768-4.16-10.944-9.44-24.224-20.8-88.608-76.032-165.216-144.736-9.12-8.16-9.92-22.176-1.76-31.328 8.128-9.152 22.144-9.888 31.264-1.76 76.32 68.384 140.416 123.392 164.544 144.096 6.752 5.792 10.816 9.312 11.712 10.080 19.872 17.664 19.968 41.152 13.984 56.032-14.368 35.040-13.152 70.592 3.744 105.728 24.608 51.424 63.456 70.304 104.64 79.008l-35.488-74.112c-9.44-19.712-10.048-41.056-1.664-60.16 9.536-21.6 29.984-40.128 60.928-54.976 30.912-14.816 58.144-19.264 80.896-13.152 20.16 5.408 36.416 19.232 45.824 38.944 0 0 22.528 47.104 36.192 75.584 18.912-36.352 31.168-79.328 5.216-133.632-36.576-76.416-114.816-85.152-176.416-67.648-17.28 5.152-32.384 0.672-45.056-13.312-3.936-4.352-50.208-56.16-143.072-160.288-8.16-9.12-7.36-23.168 1.76-31.328 4.192-3.776 9.472-5.664 14.752-5.664 6.080 0 12.128 2.496 16.512 7.392 88.192 98.88 134.272 150.528 143.36 160.384 0.16-0.064 0.256-0.064 0.256-0.064 98.368-27.936 187.808 7.936 227.776 91.328 43.808 91.712 1.664 162.144-18.528 195.808zM624.544 438.304c-28.64 29.472-76.608 33.888-110.848 12.768l-254.72 262.080-35.712 74.112c-5.12 10.848-19.936 23.456-25.216 26.912l-106.944 69.792c-15.872 10.304-37.408 8.32-51.040-5.024l-25.408-24.832c-6.496-6.336-19.936-23.744-4.416-49.12l66.624-108.992c6.016-9.92 19.904-22.752 26.016-25.984l73.056-37.728 254.656-262.016c-9.568-14.176-14.848-30.848-15.072-48.416-0.288-23.744 8.576-46.112 24.992-63.040l290.336-299.008c16.768-17.216 39.264-26.72 63.392-26.72 23.264 0 45.152 8.896 61.728 25.056l57.248 55.84c16.864 16.48 26.368 38.624 26.688 62.368s-8.544 46.144-25.024 63.040l-290.336 298.944zM199.424 670.048l-74.112 38.112c-2.592 1.952-9.056 8.288-10.688 10.976l-65.248 106.944 19.744 19.264 104.704-68.288c2.4-1.696 8.48-7.52 9.504-8.928l37.344-77.536c1.024-2.144 2.432-4.128 4.064-5.824l255.776-263.2-19.584-19.072-255.84 263.296c-1.664 1.728-3.584 3.136-5.696 4.256zM882.272 45.696l-57.28-55.872c-16.8-16.384-46.080-15.936-62.496 0.864l-290.336 299.008c-8.192 8.384-12.576 19.616-12.448 31.488s4.864 22.944 13.28 31.168l54.272 52.864c0.128 0.128 0.192 0.256 0.32 0.384l2.688 2.624c8.256 8.032 19.2 12.48 30.848 12.48 12.096 0 23.36-4.736 31.712-13.312l290.272-299.008c8.224-8.416 12.608-19.616 12.448-31.488s-4.864-22.912-13.312-31.168zM531.648 332.352c-8.672 8.672-22.656 8.672-31.328 0-8.64-8.704-8.64-22.752 0-31.392l278.4-279.040c4.32-4.32 9.984-6.464 15.648-6.464s11.328 2.144 15.648 6.464c8.64 8.672 8.64 22.72 0 31.392l-278.4 279.040z" />
            <glyph unicode="&#xe90a;" glyph-name="shop" d="M663.904 960h-553.152v-1024h802.048v774.784zM673.888 901.888l180.768-180.768h-180.608zM145.12-29.952v956.032h494.56v-238.88h239.36v-717.152zM281.344 669.952h153.664c9.504 0 17.184 7.712 17.184 17.184s-7.712 17.184-17.184 17.184h-153.664c-9.504 0-17.184-7.712-17.184-17.184s7.712-17.184 17.184-17.184zM281.344 533.536h85.536c8.672 0.576 15.584 7.456 16.128 16.096 0 8.96-7.232 16.192-16.128 16.192h-85.536c-8.928 0-16.128-7.232-16.128-16.128 0.576-8.672 7.456-15.584 16.096-16.128zM537.984 533.536h119.456c8.672 0.576 15.584 7.456 16.128 16.096 0 8.96-7.232 16.192-16.128 16.192h-119.456c-0.16 0-0.32 0-0.512 0-9.088 0-16.48-7.136-16.928-16.096 0.608-9.088 8.096-16.192 17.248-16.192 0.064 0 0.128 0 0.192 0zM440.16 562.432c-3.072-2.944-4.992-7.104-4.992-11.68 0-0.096 0-0.192 0-0.288s0-0.16 0-0.256c0-4.608 1.92-8.736 4.992-11.68 3.072-3.040 7.296-4.928 11.936-5.024 0.032 0 0.064 0 0.096 0 4.8 0 9.152 1.92 12.352 4.992 2.912 3.136 4.8 7.296 4.992 11.904-0.192 4.832-2.080 9.152-5.024 12.48-3.168 2.72-7.328 4.416-11.904 4.416-4.832 0-9.216-1.856-12.48-4.928zM742.176 533.536c0.032 0 0.032 0 0.064 0 4.8 0 9.152 1.92 12.352 4.992 2.912 3.136 4.8 7.296 4.992 11.904-0.192 4.832-2.048 9.152-5.024 12.48-3.232 2.752-7.456 4.416-12.096 4.416s-8.864-1.664-12.128-4.448c-3.072-3.168-4.992-7.52-4.992-12.32 0-0.032 0-0.064 0-0.064 0-0.064 0-0.16 0-0.256 0-4.608 1.92-8.736 4.992-11.68 3.040-3.008 7.2-4.896 11.776-5.024zM486.336 431.040h-119.456c-9.504 0-17.184-7.712-17.184-17.184s7.712-17.184 17.184-17.184h119.456c9.504 0 17.184 7.712 17.184 17.184s-7.712 17.184-17.184 17.184zM281.344 396.672c4.8 0.192 9.12 2.080 12.448 5.024 3.072 3.168 4.992 7.52 4.992 12.352 0 0.032 0 0.064 0 0.064 0 0.064 0 0.16 0 0.256 0 4.608-1.92 8.736-4.992 11.68-3.168 2.976-7.424 4.768-12.128 4.768s-8.928-1.824-12.128-4.768c-3.072-2.944-4.992-7.072-4.992-11.68 0-0.096 0-0.192 0-0.288 0 0 0-0.032 0-0.064 0-4.8 1.92-9.152 4.992-12.352 3.136-2.816 7.232-4.64 11.712-4.992zM335.424 274.656c-37.44-19.2-50.368-56.64-54.88-95.232l-20.992 17.92c-16.128 13.728-41.152-10.016-24.224-24.224s32.288-26.464 48.416-40.192c2.944-2.272 6.688-3.648 10.752-3.648 9.088 0 16.544 6.88 17.504 15.68 0.96 36.704 2.752 80.768 39.872 100.32 20.192 10.016 2.752 39.392-16.448 29.376zM448.896 206.368c-23.712-5.504-50.848-35.2-67.296-1.76-9.696 20.192-39.392 2.752-29.696-16.128 8.864-17.408 25.6-29.728 45.376-32.256 2.528-0.352 5.12-0.512 7.776-0.512 7.712 0 15.104 1.536 21.792 4.352 6.56 2.592 31.904 22.304 38.048 12.288 10.976-19.2 40.192-1.76 29.696 17.44-7.296 11.136-19.744 18.4-33.856 18.4-4.224 0-8.288-0.64-12.096-1.856zM797.536 371.168c-2.784 1.248-5.024 3.328-6.432 5.888-0.576 1.44-0.896 3.008-0.896 4.672s0.32 3.232 0.864 4.672c2.56 5.44 4.096 11.904 4.096 18.72 0 24.864-20.16 45.024-45.024 45.024-6.688 0-13.056-1.472-18.784-4.096-1.088-0.416-2.656-0.736-4.32-0.736s-3.232 0.32-4.672 0.864c-2.752 1.376-4.928 3.84-5.856 6.816-6.624 17.504-23.168 29.696-42.56 29.696s-35.936-12.16-42.432-29.28c-1.088-3.392-3.232-5.856-6.016-7.232-1.344-0.576-2.848-0.864-4.416-0.864s-3.072 0.32-4.448 0.864c-5.6 2.688-12.224 4.288-19.264 4.288-12.416 0-23.648-4.992-31.84-13.056-8.32-8.128-13.504-19.456-13.504-32.032 0-6.944 1.6-13.536 4.416-19.424 0.416-1.088 0.736-2.688 0.736-4.32s-0.32-3.232-0.864-4.672c-1.28-2.656-3.552-4.8-6.336-5.856-17.792-6.24-30.272-22.816-30.272-42.304s12.48-36.064 29.888-42.208c3.232-1.344 5.504-3.616 6.752-6.464 0.576-1.376 0.864-2.88 0.864-4.448s-0.32-3.072-0.864-4.448c-2.688-5.536-4.288-12.128-4.288-19.072 0-12.544 5.184-23.904 13.504-32 6.144-6.304 14.144-10.752 23.136-12.384l0.256-209.888 85.056 85.056 85.536-85.536v209.824c9.12 1.6 17.024 6.048 22.88 12.416 8.352 8.16 13.536 19.488 13.536 32.064 0 6.944-1.6 13.536-4.416 19.424-0.416 1.024-0.736 2.528-0.736 4.096s0.32 3.072 0.864 4.448c1.376 2.752 3.616 4.992 6.336 6.336 17.792 6.24 30.272 22.816 30.272 42.336s-12.48 36.064-29.888 42.208zM674.048 131.456l-51.168-51.168v131.872s0 0 0 0c0.352 0.128 0.736 0.192 1.12 0.192s0.8-0.064 1.152-0.192l3.2-1.76c1.216-1.216 2.176-2.752 2.72-4.448 6.624-17.504 23.168-29.664 42.56-29.664s35.936 12.16 42.432 29.28c0.672 2.080 1.632 3.616 2.848 4.832l3.232 1.76c0.352 0.128 0.736 0.192 1.12 0.192s0.8-0.064 1.152-0.192l-0.032-132.672zM786.080 319.040c-17.664-6.368-30.048-22.976-30.048-42.464 0-7.040 1.6-13.696 4.48-19.616 0.704-1.184 1.216-2.944 1.216-4.8 0-2.88-1.184-5.504-3.104-7.36-2.016-2.080-4.864-3.36-7.968-3.36-0.608 0-1.184 0.064-1.76 0.128l-3.648 1.44-4.832 1.44-3.712 1.44c-0.768 0.128-1.632 0.192-2.496 0.192s-1.76-0.064-2.592-0.192c-0.544 0.128-1.248 0.192-2.016 0.192s-1.472-0.064-2.176-0.192h-4.928c-0.64-0.096-1.344-0.16-2.112-0.16s-1.472 0.064-2.176 0.192c-3.264-0.736-6.176-1.664-8.96-2.88l0.32 0.128-2.272-1.44c-2.496-0.992-4.64-2.080-6.624-3.328-2.176-1.376-4.128-3.2-5.76-5.344-0.192 0-0.352 0.032-0.512 0.032s-0.352-0.032-0.48-0.064c-4.128-4.576-7.52-9.92-9.856-15.776-1.6-4.608-5.568-7.584-10.208-7.584s-8.608 2.976-10.080 7.168c-2.304 6.368-5.728 11.744-10.048 16.224v0c-1.92 2.048-4.032 3.84-6.336 5.408-1.856 1.248-3.808 2.304-5.856 3.232-1.12 0.512-1.856 0.992-2.528 1.568v0c-0.16-0.064-0.32-0.096-0.48-0.096s-0.352 0.032-0.48 0.096c-2.208 0.928-4.8 1.728-7.488 2.208-1.12 0.16-2.176 0.192-3.232 0.192s-2.080-0.064-3.104-0.192c-0.832 0-1.344 0-2.144 0v0c-0.672 0.032-1.472 0.064-2.24 0.064-5.824 0-11.328-1.408-16.192-3.872l-3.52-0.864c-0.736-0.192-1.6-0.288-2.496-0.288-2.912 0-5.568 1.152-7.52 3.040-1.92 1.888-3.104 4.48-3.104 7.36 0 1.856 0.48 3.584 1.344 5.12 2.72 5.6 4.352 12.256 4.352 19.296 0 19.488-12.384 36.096-29.728 42.368-4.576 1.504-7.584 5.44-7.584 10.080 0 0 0 0.032 0 0.032 0 0.032 0 0.096 0 0.16 0 4.736 3.008 8.768 7.2 10.304 12.128 4.384 21.6 13.44 26.432 24.896 2.208 5.376 3.424 11.296 3.424 17.504 0 7.040-1.568 13.728-4.384 19.712-0.672 1.184-1.152 2.912-1.152 4.736 0 2.88 1.184 5.504 3.072 7.392 2.080 2.368 5.12 3.84 8.48 3.84 1.472 0 2.88-0.288 4.192-0.8 5.6-2.784 12.256-4.416 19.328-4.416 6.24 0 12.16 1.28 17.536 3.616 11.456 4.864 20.512 14.304 24.8 26.048 1.44 4.384 5.184 7.264 9.632 7.264 0.16 0 0.32 0 0.512 0 0.096 0 0.224 0 0.384 0 4.576 0 8.512-2.848 10.080-6.88 4.128-12.288 13.28-21.856 24.928-26.432 5.376-2.304 11.296-3.584 17.536-3.584 7.040 0 13.728 1.632 19.648 4.544 1.056 0.48 2.624 0.8 4.256 0.8 3.072 0 5.856-1.216 7.936-3.2 1.888-1.888 3.040-4.512 3.040-7.392 0-1.856-0.48-3.584-1.312-5.088-2.56-5.696-4.064-12.384-4.064-19.456 0-6.144 1.152-12.064 3.232-17.472 4.832-11.424 14.304-20.48 26.048-24.736 4.576-1.44 7.584-5.344 7.584-9.984 0-0.224 0-0.448-0.032-0.64 0-0.096 0-0.256 0-0.384 0-4.64-3.2-8.544-7.52-9.568z" />
            <glyph unicode="&#xe90b;" glyph-name="showroom" horiz-adv-x="832" d="M757.568 796.064h-77.792c-30.72 71.68-104.416 122.848-188.384 122.848s-155.616-51.2-188.384-122.848h-241.6c-34.816 0-61.44-26.624-61.44-61.44v-696.16c0-34.816 26.624-61.44 61.44-61.44h696.16c34.816 0 61.44 26.624 61.44 61.44v696.16c0 34.816-26.624 61.44-61.44 61.44zM491.392 877.984c90.080 0 163.808-73.696 163.808-163.808 0-112.608-122.848-239.552-163.808-278.464-40.96 40.96-163.808 167.904-163.808 278.464 0 90.080 73.696 163.808 163.808 163.808zM61.44 18.016c-12.288 0-20.48 8.192-20.48 20.48v696.16c0 12.288 8.192 20.48 20.48 20.48h229.312c-2.048-12.288-4.096-26.624-4.096-40.96 0-59.392 28.672-120.8 63.488-174.048l-239.552-522.112h-49.152zM778.048 38.496c0-12.288-8.192-20.48-20.48-20.48h-601.952l133.088 288.704 491.392-200.64v-67.552zM778.048 151.104l-472.96 192.448 71.648 157.664c47.104-61.44 96.224-106.464 100.32-110.56l14.336-12.288 14.336 12.288c8.192 6.144 190.432 169.952 190.432 323.52 0 14.336-2.048 28.672-4.096 40.96h65.504c12.288 0 20.48-8.192 20.48-20.48v-583.552zM573.312 714.176c0 45.056-36.864 81.888-81.888 81.888s-81.888-36.864-81.888-81.888 36.864-81.888 81.888-81.888 81.888 36.864 81.888 81.888zM450.464 714.176c0 22.528 18.432 40.96 40.96 40.96s40.96-18.432 40.96-40.96-18.432-40.96-40.96-40.96-40.96 18.432-40.96 40.96z" />
            <glyph unicode="&#xe90c;" glyph-name="stairs" horiz-adv-x="1312" d="M223.584 572.576c6.976 0 13.984 2.656 19.296 8l281.056 281.056v-88.544c0-15.072 12.224-27.296 27.296-27.296s27.296 12.224 27.296 27.296v154.464c0 15.072-12.224 27.296-27.296 27.296h-154.432c-15.072 0-27.296-12.224-27.296-27.296s12.224-27.296 27.296-27.296h88.544l-281.056-281.056c-10.656-10.656-10.656-27.936 0-38.624 5.312-5.312 12.32-8 19.296-8zM1261.216 872.96h-245.76c-15.072 0-27.296-12.224-27.296-27.296v-191.136h-218.464c-15.072 0-27.296-12.224-27.296-27.296v-191.136h-218.464c-15.072 0-27.296-12.224-27.296-27.296v-191.136h-218.464c-15.072 0-27.296-12.224-27.296-27.296v-191.136h-218.464c-15.072 0-27.296-12.224-27.296-27.296s12.224-27.296 27.296-27.296h245.76c15.072 0 27.296 12.224 27.296 27.296v191.136h218.464c15.072 0 27.296 12.224 27.296 27.296v191.136h218.464c15.072 0 27.296 12.224 27.296 27.296v191.136h218.464c15.072 0 27.296 12.224 27.296 27.296v191.136h218.464c15.072 0 27.296 12.224 27.296 27.296s-12.224 27.296-27.296 27.296z" />
            <glyph unicode="&#xe90d;" glyph-name="exclamation-mark" horiz-adv-x="1170" d="M1162.971 472.381l-268.19 463.238c-9.752 14.629-24.381 24.381-41.448 24.381h-536.381c-17.067 0-34.133-9.752-41.448-24.381l-268.19-463.238c-9.752-14.629-9.752-34.133 0-48.762l268.19-463.238c9.752-14.629 24.381-24.381 41.448-24.381h536.381c17.067 0 34.133 9.752 41.448 24.381l268.19 463.238c9.752 14.629 9.752 34.133 0 48.762zM824.076 33.524h-477.867l-241.371 414.476 238.933 414.476h480.305l238.933-414.476-238.933-414.476zM585.143 301.714c26.819 0 48.762 21.943 48.762 48.762v365.714c0 26.819-21.943 48.762-48.762 48.762s-48.762-21.943-48.762-48.762v-365.714c0-26.819 21.943-48.762 48.762-48.762zM541.257 223.695c-12.19-12.19-17.067-26.819-17.067-43.886s7.314-31.695 17.067-43.886c12.19-12.19 26.819-17.067 43.886-17.067s31.695 7.314 43.886 17.067c12.19 12.19 17.067 26.819 17.067 43.886s-7.314 31.695-17.067 43.886c-24.381 21.943-63.39 21.943-87.771 0z" />
            <glyph unicode="&#xe90e;" glyph-name="calendar" d="M384 490.667h-85.333v-85.333h85.333v85.333zM554.667 490.667h-85.333v-85.333h85.333v85.333zM725.333 490.667h-85.333v-85.333h85.333v85.333zM810.667 789.333h-42.667v85.333h-85.333v-85.333h-341.333v85.333h-85.333v-85.333h-42.667c-47.36 0-84.907-38.4-84.907-85.333l-0.427-597.333c0-46.933 37.973-85.333 85.333-85.333h597.333c46.933 0 85.333 38.4 85.333 85.333v597.333c0 46.933-38.4 85.333-85.333 85.333zM810.667 106.667h-597.333v469.333h597.333v-469.333z" />
            <glyph unicode="&#xe90f;" glyph-name="gear" horiz-adv-x="819" d="M406.956 598.913c-84.783 0-152.609-67.826-152.609-152.609s67.826-152.609 152.609-152.609c84.783 0 152.609 67.826 152.609 152.609s-67.826 152.609-152.609 152.609zM406.956 361.521c-47.479 0-84.783 37.304-84.783 84.783s37.304 84.783 84.783 84.783c47.479 0 84.783-37.304 84.783-84.783s-37.304-84.783-84.783-84.783zM798.653 515.825c-11.869 20.347-30.523 32.218-52.565 32.218h-33.913c-5.088 15.261-10.174 28.825-16.957 42.391l23.74 23.74c8.478 8.478 25.435 32.218 10.174 71.217-16.957 42.391-69.521 88.173-113.608 88.173-15.261 0-30.523-5.088-40.696-16.957l-23.74-22.044c-13.566 6.783-27.13 11.869-42.391 16.957v33.913c0 40.696-40.696 67.826-101.739 67.826s-101.739-27.13-101.739-67.826v-33.913c-15.261-5.088-28.825-10.174-42.391-16.957l-23.74 23.74c-10.174 10.174-25.435 16.957-40.696 16.957-44.087 0-94.956-47.479-113.608-88.173-16.957-39.001 1.695-62.738 10.174-71.217l23.74-23.74c-6.783-13.566-13.566-27.13-16.957-42.391h-33.913c-40.696 0-67.826-40.696-67.826-101.739s27.13-101.739 67.826-101.739h33.913c5.088-15.261 10.174-28.825 16.957-42.391l-23.74-23.74c-8.478-8.478-25.435-32.218-10.174-71.217 16.957-42.391 69.521-88.173 113.608-88.173 15.261 0 30.523 5.088 40.696 16.957l23.74 23.74c13.566-6.783 27.13-11.869 42.391-16.957v-33.913c0-23.74 15.261-44.087 40.696-55.957 16.957-6.783 37.304-11.869 61.043-11.869 61.043 0 101.739 27.13 101.739 67.826v33.913c15.261 5.088 28.825 10.174 42.391 16.957l23.74-23.74c10.174-10.174 25.435-16.957 40.696-16.957 44.087 0 94.956 47.479 113.608 88.173 16.957 39.001-1.695 62.738-10.174 71.217l-23.74 22.044c6.783 13.566 13.566 27.13 16.957 42.391h33.913c20.347 0 39.001 11.869 52.565 32.218 20.347 37.304 20.347 101.739 0 139.043zM739.305 412.391h-79.695l-5.088-25.435c-6.783-25.435-16.957-49.174-30.523-72.914l-13.566-22.044 55.957-55.957c-5.088-15.261-32.218-44.087-47.479-47.479l-55.957 55.957-22.044-13.566c-23.74-15.261-49.174-25.435-74.609-30.523l-25.435-6.783v-79.695c-5.088-3.39-16.957-6.783-33.913-6.783s-28.825 3.39-33.913 6.783v79.695l-25.435 6.783c-25.435 6.783-49.174 16.957-72.914 30.523l-22.044 13.566-57.653-57.653c-15.261 5.088-44.087 32.218-47.479 47.479l55.957 55.957-13.566 22.044c-13.566 22.044-23.74 47.479-30.523 72.914l-6.783 25.435h-79.695c-8.478 13.566-8.478 54.26 0 67.826h79.695l6.783 25.435c6.783 25.435 16.957 49.174 30.523 72.914l13.566 22.044-55.957 59.348c5.088 15.261 32.218 44.087 47.479 47.479l55.957-55.957 22.044 13.566c22.044 13.566 47.479 23.74 72.914 30.523l25.435 6.783v79.695c5.088 3.39 16.957 6.783 33.913 6.783s28.825-3.39 33.913-6.783v-79.695l25.435-6.783c25.435-6.783 49.174-16.957 72.914-30.523l22.044-13.566 55.957 55.957c15.261-5.088 44.087-32.218 47.479-47.479l-55.957-55.957 13.566-22.044c13.566-22.044 23.74-47.479 30.523-72.914l6.783-25.435h79.695c10.174-15.261 10.174-55.957 1.695-69.521z" />
            <glyph unicode="&#xe910;" glyph-name="bag" horiz-adv-x="819" d="M622.028 778.384c-17.389 102.401-106.264 181.616-212.528 181.616s-197.071-79.215-212.528-181.616h-152.634v-842.384h730.325v842.384h-152.634zM409.5 890.446c67.623 0 125.585-48.302 141.042-112.061h-282.083c15.458 63.759 73.42 112.061 141.042 112.061zM705.108 5.554h-591.215v703.276h79.215v-73.42h69.554v73.42h291.743v-73.42h69.554v73.42h79.215l1.932-703.276zM531.222 511.759l-293.675-295.608 50.233-50.233 293.675 293.675-50.233 52.165zM384.382 444.137c0 54.099-44.439 100.467-100.467 100.467-54.099 0-100.467-44.439-100.467-100.467 0-54.099 44.439-100.467 100.467-100.467 56.031 1.932 100.467 46.37 100.467 100.467zM254.934 444.137c0 17.389 13.524 28.981 28.981 28.981 17.389 0 28.981-13.524 28.981-28.981 0-17.389-13.524-28.981-28.981-28.981s-28.981 13.524-28.981 28.981zM535.085 334.007c-54.099 0-100.467-44.439-100.467-100.467 0-54.099 44.439-100.467 100.467-100.467 54.099 0 100.467 44.439 100.467 100.467-1.932 56.031-46.37 100.467-100.467 100.467zM535.085 204.559c-17.389 0-28.981 13.524-28.981 28.981s13.524 28.981 28.981 28.981c17.389 0 28.981-13.524 28.981-28.981s-13.524-28.981-28.981-28.981z" />
            <glyph unicode="&#xe911;" glyph-name="delivery" horiz-adv-x="819" d="M49.717 576.213h166.154v47.099h-166.154v-47.099zM0.001 457.158h215.871v47.099h-215.871v-47.099zM49.717 336.794h166.154v47.099h-166.154v-47.099zM268.204 733.21v-505.007h64.107c10.467-37.941 44.483-65.415 86.348-65.415s75.882 27.474 86.348 65.415h77.19c10.467-37.941 44.483-65.415 86.348-65.415s75.882 27.474 86.348 65.415h64.107v505.007h-550.797zM505.009 686.111h74.573v-126.905l-37.941 17.009-37.941-17.009 1.308 126.905zM417.351 209.887c-23.55 0-41.865 18.317-41.865 41.865s18.317 41.865 41.865 41.865c23.55 0 41.865-18.317 41.865-41.865s-18.317-41.865-41.865-41.865zM665.93 209.887c-23.55 0-41.865 18.317-41.865 41.865s18.317 41.865 41.865 41.865 41.865-18.317 41.865-41.865c0-23.55-18.317-41.865-41.865-41.865zM769.286 275.302h-17.009c-10.467 37.941-44.483 65.415-86.348 65.415s-75.882-27.474-86.348-65.415h-77.19c-10.467 37.941-44.483 65.415-86.348 65.415s-75.882-27.474-86.348-65.415h-17.009v410.809h142.606v-198.862l85.040 36.633 85.040-36.633v198.862h142.606l1.308-410.809zM401.652 268.761c-3.926-3.926-6.542-10.467-6.542-17.009s2.616-11.775 6.542-17.009c3.926-3.926 10.467-6.542 17.009-6.542s11.775 2.616 17.009 6.542c3.926 3.926 6.542 10.467 6.542 17.009s-2.616 11.775-6.542 17.009c-9.158 7.85-26.166 7.85-34.016 0zM648.923 268.761c-3.926-3.926-6.542-10.467-6.542-17.009s2.616-11.775 6.542-17.009c3.926-3.926 10.467-6.542 17.009-6.542s11.775 2.616 17.009 6.542c3.926 3.926 6.542 10.467 6.542 17.009s-2.616 11.775-6.542 17.009c-9.158 7.85-24.858 7.85-34.016 0z" />
            <glyph unicode="&#xe912;" glyph-name="note" horiz-adv-x="819" d="M571.088 957.108h-482.547c-48.696 0-88.541-39.844-88.541-88.541v-841.136c0-48.696 39.844-88.541 88.541-88.541h641.919c48.696 0 88.541 39.844 88.541 88.541v681.764l-247.913 247.913zM575.514 828.723l115.102-115.102h-115.102v115.102zM88.54 27.432v841.136h398.433v-154.946c0-48.696 39.844-88.541 88.541-88.541h154.946v-597.649h-641.919zM398.432 713.622h-221.351v-88.541h221.351v88.541zM177.081 403.73h464.838v88.541h-464.838v-88.541zM177.081 182.378h464.838v88.541h-464.838v-88.541z" />
            <glyph unicode="&#xe913;" glyph-name="thumb-up" horiz-adv-x="819" d="M702.741 618.517h-136.932c7.752 49.089 10.335 121.428-28.419 175.686-31.002 41.337-80.091 64.59-144.681 64.59-10.335 0-20.67-5.166-28.419-12.918s-10.335-18.084-10.335-28.419c2.583-46.506-2.583-152.433-36.171-188.604-7.752-7.752-12.918-10.335-23.253-10.335h-38.754c-5.166 15.501-20.67 25.836-36.171 25.836h-180.852c-20.67 0-38.754-18.084-38.754-38.754v-529.638c0-20.67 18.084-38.754 38.754-38.754h180.852c18.084 0 31.002 10.335 36.171 25.836h418.542c62.007 0 113.679 49.089 113.679 113.679l25.836 325.533c0 0 0 2.583 0 2.583 5.166 62.007-46.506 113.679-111.096 113.679zM80.090 566.845h103.344v-452.13h-103.344v452.13zM715.659 181.888c0 0 0-2.583 0-2.583 0-20.67-15.501-36.171-36.171-36.171h-418.542v397.875h36.171c31.002 0 56.838 12.918 77.508 33.588 46.506 49.089 56.838 142.098 56.838 198.936 18.084-5.166 31.002-12.918 41.337-25.836 31.002-43.92 15.501-129.18 5.166-157.599-5.166-12.918-2.583-25.836 5.166-33.588s18.084-15.501 31.002-15.501h186.018c20.67 0 36.171-15.501 36.171-36.171l-20.67-322.95z" />
            <glyph unicode="&#xe914;" glyph-name="thumb-up2" horiz-adv-x="1016" d="M873.453 661.679h-171.349c10.224 60.729 13.9 151.837-34.831 219.145-38.088 52.537-98.462 79.176-179.477 79.176-13.352 0-26.123-5.515-35.283-15.255-9.127-9.74-13.836-22.834-12.997-36.186 3.612-57.245-2.419-189.829-44.184-234.303-8.288-8.837-16.609-12.61-27.8-12.61h-47.989c-6.676 18.738-24.382 32.251-45.409 32.251h-225.757c-26.736 0-48.376-21.64-48.376-48.376v-661.145c0-26.704 21.64-48.376 48.376-48.376h225.757c21.028 0 38.766 13.513 45.409 32.251h521.724c77.822 0 141.291 62.728 142.42 140.324l32.090 406.846c0.097 1.29 0.161 2.548 0.161 3.806-0.032 78.563-63.921 142.452-142.485 142.452zM96.721 597.177h129.004v-564.392h-129.004v564.392zM887.062 114.509c-0.097-1.258-0.161-2.548-0.161-3.806 0-25.188-20.479-45.667-45.667-45.667h-518.757v499.89h45.022c37.83 0 71.855 14.9 98.333 43.12 57.794 61.535 69.63 178.606 71.146 249.558 22.898-6.095 39.959-17.158 51.731-33.38 39.636-54.472 17.932-159.9 6.257-195.828-4.838-14.739-2.322-30.896 6.773-43.474s23.608-20.028 39.185-20.028h232.529c24.672 0 44.829-19.641 45.635-44.087l-32.025-406.298z" />
            <glyph unicode="&#xe915;" glyph-name="vibromassazher" horiz-adv-x="992" d="M114.5 23.1h703.1c18.2 0 33-14.8 33-33v-6.5c0-18.2-14.8-33-33-33h-703.1c-18.2 0-33 14.8-33 33v6.5c0 18.3 14.8 33 33 33v0zM672.7 2.5c-8.4 0-16 1.1-21.9 4.7l1.6 2.7-7.5 0.1 0.3 28.7 3.6-2.2c2.7 8.2 6.6 17.9 11.4 29.6 3.9 9.5 9.3 22.5 9.7 26.2l1.6 146.2 10.5 1.2c24 2.7 59.4 10.2 91.1 30.5l6.3-9.9 12.1 0.2 6.1-166.4c7.8-25.1 10.6-35.5 11.6-40.1 7.1-12.1 15.5-25.9 17.3-28.2-1.1 1.4-4 3.7-8.2 3.8l0.4-24h-0.7c-0.1 0-0.2 0-0.3 0h-103.5c-5.4 0-11.9-0.7-18.9-1.4-7.9-0.9-15.5-1.7-22.6-1.7zM670.9 26.5c6.6-0.1 15.6 0.8 21.9 1.5 7.3 0.8 14.8 1.5 21.4 1.5h81.8c-4.4 7.3-8.3 14.1-8.4 14.2l-1.5 2.6-0.1 2.5c-0.8 4.1-6.5 23.5-11.5 39.6l-0.5 1.5-5.5 149.8c-21.8-11-46.3-18.6-73.1-22.6l-1.4-125.2c-0.1-7.1-4.2-17.4-11.5-35-3.8-9.1-8.8-21.4-11.6-30.4zM785.9 49.4c0-0.1 0-0.1 0 0v0zM671.8 260.8l4.5 409.4c-79.9 5.1-134.3 23.1-161.8 53.5-13.4 14.8-18.5 32.3-14.8 50.7 6.3 30.9 37.5 65.1 92.9 101.4 38.7 25.4 75.2 42.7 78.9 44.4 20.9 10.9 55.8 17.8 80.1 15.9 7.7 0.3 50.7-0.5 149.9-40.2 26.9-10.8 43-27.9 47.8-50.8 5.5-26.4-4.7-59.1-30.3-97.1-17.4-25.8-35.8-44.9-38.3-47.5-3.7-4.2-8.5-8.3-14.3-12l-4.8 7.4-12.5 8.1 1.5 2.9 1.1 0.7c5.8 7.7 8.8 16.8 8.8 26.5 0 24.5-19.9 44.4-44.4 44.4s-44.4-19.9-44.4-44.4c0-17.1 10-32.8 25.4-40.1l41.3-19.6-45.6-3.2c-5.4-0.4-10.8-0.7-16.2-1l12.4-336.6-2.3-3.3c-23.6-34.1-57.2-56.3-100.1-66.1l-14.8-3.4zM743.3 912.4c-19.6 0-45.8-5.7-60.8-13.6l-0.5-0.3c-40.7-19-148.5-79.1-158.6-129-2.2-11 0.6-20.5 9-29.8 24.1-26.6 78.2-42.6 156.7-46.3l11.6-0.5-4.4-401.3c28.5 9.3 51.5 25.8 68.6 49.1l-12.9 352.3 9.4 0.4c-8.6 11.6-13.5 25.8-13.5 40.6 0 37.7 30.7 68.4 68.4 68.4 35.4 0 64.6-27 68-61.6 22.1 28 47.9 69.5 41.7 99.3-3.1 14.8-14 25.7-33.2 33.4-99.3 39.7-138.4 38.6-140.3 38.5l-1.1-0.1-0.9 0.1c-2.3 0.3-4.7 0.4-7.2 0.4zM150.9-46.1h185.2c5.6 0 10.1-4.5 10.1-10.1v0c0-5.6-4.5-10.1-10.1-10.1h-185.2c-5.6 0-10.1 4.5-10.1 10.1v0c0.1 5.6 4.6 10.1 10.1 10.1v0zM592.8-46.1h185.2c5.6 0 10.1-4.5 10.1-10.1v0c0-5.6-4.5-10.1-10.1-10.1h-185.2c-5.6 0-10.1 4.5-10.1 10.1v0c0 5.6 4.5 10.1 10.1 10.1zM816.8 687.9c-24.4 0-44.2 19.8-44.2 44.2s19.8 44.2 44.2 44.2 44.2-19.8 44.2-44.2-19.8-44.2-44.2-44.2zM816.8 760.4c-15.6 0-28.2-12.7-28.2-28.2s12.7-28.2 28.2-28.2 28.2 12.7 28.2 28.2-12.6 28.2-28.2 28.2zM794.2 666.3c-3.6-0.4-5.7-3.6-4.8-7.1 0 0 110.9-368.1-138.7-388.2s-80.5 446.9-80.5 446.9l-40.2 24.1c0 0-88.6-209.4-60.4-366.4s161.1-149 161.1-149 136.9-16.1 201.3 88.6c24.3 39.4 44.3 92.6 44.3 157 0 9.6-0.4 20.8-1.2 32.9-4.3 69.2-18 161.9-18 161.9-0.5 3.6-3.9 6.2-7.5 5.8l-55.4-6.5zM832.6 732.5c0-8.9-7.2-16.1-16.1-16.1s-16.1 7.2-16.1 16.1c0 8.9 7.2 16.1 16.1 16.1s16.1-7.2 16.1-16.1zM683.8 893.7c0 0 52.3-8.1 28.2-36.2s-112.7-12.1-112.7-12.1l84.5 48.3z" />
            <glyph unicode="&#xe916;" glyph-name="vibroplatforma" d="M797 127c-8.8-0.6-15.4-8.2-15-17l3.8-79c0.4-8.8 7.8-17 16.4-18.4l5.8-1c8.6-1.4 16.2-9.6 17-18.4l1.2-13.8c0.8-8.8-5.6-16.4-14.4-17.2l-322.4-28.4c-3.4-0.6-7-0.4-10.2 0.4l-194.6 41.8c-10.2 2.2-17.4 10.8-18.2 20.6l-4.6 60c-0.6 8 3 15.2 9 19.8l98.4 85c1.2 1 55.2 0.2 55.2 0.2 12.2-0.2 21.4 9.6 20.4 21.8l-41.4 568.6-26.4 38.6-3.2 68.8c-0.8 16.8 13 30.4 29.6 31.6l39.2 2.8c18.2 1.2 32.4-11.2 33.2-29l3-62.2 0.2-5.2-22.6-45.4 58.6-543.4c2.8-26 26.4-47.2 29-47.2h-19c10.4 0 27.6 0.4 38 0.8l237.2 11c8.8 0.4 16.2-6.4 17-15l2.2-29.6-22.4-1.6zM511 15.2l97.8 9.4-4.2 88.8-22.2-1.6-71.4-96.6zM677.8 31.4l1.2 0.2c2 0.2 4 0.2 6-0.2l24.6-3.8-4.4 93-31.2-2.2 3.8-87zM470.2 116.6l-73.4-76.2 1.8-42.2 63.6-13.6v31.8c0 6 0.6 10.8 4.4 16l60 81-56.4 3.2zM367.6 4.8l-2 47.2 64.4 66.8-37.8 2.2-83.6-72.4 2.4-31.8 56.6-12zM505.8 620c-27 0-48.2 4.6-50 5l2 9.4c-2.8 15.4-12 68-21 120.8-21.8 127.8-20.2 131.2-19 134 12.8 28.2 44.8 53.2 65.8 51.6 1 0 2.2 0 3.8 0 19 0 69.4-0.2 109.8-96.2 40.2-95.8 39.8-162.2-1.8-197.6-25.2-21.6-60.6-27-89.6-27zM470 634.8c24.8-3.6 83.4-8.2 117.8 21.2 37 31.6 36.6 93.4-1.6 183.8-37.4 88.6-82 88.8-98.8 88.8-1.8 0-3.4 0-4.8 0.2-12.6 1-41.2-17.4-53.6-44 0-14.2 24-155.4 41-250zM429.2 885.4v0zM390.4 621.6c-17.6 0-37.4 4.2-54.8 18-36.4 28.8-49.2 89.8-38 180.8 12.6 102.4 48.6 114 62 118.4 1 0.4 2 0.6 2.4 0.8 15.8 6.8 43.2-10.4 57.6-36.2 1.2-2.2 2.8-5 8.4-134 2.4-52.8 4.4-105.6 5-121.8l0.4 2.4c5.2-0.8 11.6-3 12.2-8.8 0.6-6.8-7.6-10-11.2-11.2-7-3.2-24.2-8.4-44-8.4zM369.8 928.8c-1.2 0-2.2-0.2-3-0.6-1-0.4-2.2-0.8-3.6-1.2-11.6-3.8-42.2-13.6-53.8-108.4-10.6-86.6 0.6-143.8 33.6-169.8 32.2-25.4 75-12.6 87.6-8 0.6 0.2 1.2 0.4 1.8 0.6l0.2 0.8-11-0.4c-3.6 96.8-10 243.6-12.6 256.2-11.6 20.4-30.2 30.8-39.2 30.8zM408.8 898.2c0 0 0 0 0 0s0 0 0 0zM364.8 928.4c-1.2 2.4-2.4 6.2-0.4 9.2 1.2 2 3.4 3.2 5.8 3.2h123.6v-12h-123.6c1.6 0 3 0.8 4 2 0.8 1 1 2 1 2.8l-10.4-5.2zM393.4 707.2c-88.8 0-96.2 38.2-96.4 40l6 1 5.8 1c0-0.4 9.2-38 117-28.4 6.2 0.6 13.6 1.2 22.4 1.8 48.2 3.6 128.8 9.6 170.4 27.4l4.8-11c-43.4-18.6-125.4-24.8-174.2-28.4-8.8-0.6-16.2-1.2-22.2-1.8-12.4-1.2-23.6-1.6-33.6-1.6z" />
            <glyph unicode="&#xe917;" glyph-name="facebook" d="M767.965 959.787l-132.79 0.213c-149.185 0-245.595-98.913-245.595-252.008v-116.192h-133.514c-11.537 0-20.88-9.353-20.88-20.891v-168.35c0-11.537 9.353-20.88 20.88-20.88h133.514v-424.8c0-11.537 9.343-20.88 20.88-20.88h174.198c11.537 0 20.88 9.353 20.88 20.88v424.8h156.109c11.537 0 20.88 9.343 20.88 20.88l0.064 168.35c0 5.54-2.205 10.845-6.115 14.765s-9.236 6.125-14.776 6.125h-156.163v98.498c0 47.342 11.282 71.375 72.952 71.375l89.453 0.032c11.527 0 20.869 9.353 20.869 20.88v156.322c0 11.516-9.332 20.859-20.848 20.88z" />
            <glyph unicode="&#xe918;" glyph-name="instagram" d="M741.403 960h-458.823c-155.814 0-282.579-126.771-282.579-282.585v-458.823c0-155.82 126.765-282.585 282.579-282.585h458.823c155.826 0 282.591 126.771 282.591 282.585v458.823c0.006 155.814-126.765 282.585-282.591 282.585zM933.146 218.591c0-105.723-86.014-191.732-191.738-191.732h-458.829c-105.717-0.006-191.726 86.008-191.726 191.732v458.823c0 105.717 86.008 191.732 191.726 191.732h458.823c105.723 0 191.738-86.014 191.738-191.732v-458.823zM511.997 711.848c-145.493 0-263.857-118.364-263.857-263.857 0-145.487 118.364-263.845 263.857-263.845s263.857 118.358 263.857 263.845c0 145.493-118.364 263.857-263.857 263.857zM511.997 275.005c-95.39 0-173.004 77.601-173.004 172.992 0 95.396 77.607 173.004 173.004 173.004s173.004-77.607 173.004-173.004c0-95.39-77.613-172.992-173.004-172.992zM786.92 788.886c-17.504 0-34.7-7.087-47.062-19.503-12.423-12.356-19.564-29.558-19.564-47.123 0-17.511 7.147-34.706 19.564-47.123 12.356-12.356 29.558-19.503 47.062-19.503 17.565 0 34.706 7.147 47.123 19.503 12.417 12.417 19.503 29.618 19.503 47.123 0 17.565-7.087 34.767-19.503 47.123-12.356 12.417-29.558 19.503-47.123 19.503z" />
            <glyph unicode="&#xe919;" glyph-name="odnoklassniki" d="M461.6 238.725c-79.384 8.279-150.96 27.83-212.241 75.759-7.604 5.963-15.454 11.711-22.393 18.371-26.822 25.761-29.525 55.264-8.301 85.668 18.157 26.018 48.636 32.978 80.317 18.039 6.134-2.896 11.979-6.51 17.578-10.392 114.207-78.472 271.098-80.639 385.733-3.528 11.357 8.708 23.498 15.808 37.568 19.433 27.359 7.025 52.873-3.024 67.555-26.962 16.773-27.337 16.559-54.020-4.108-75.244-31.702-32.539-69.828-56.079-112.191-72.509-40.057-15.529-83.931-23.348-127.355-28.538 6.553-7.132 9.641-10.639 13.738-14.757 58.964-59.243 118.186-118.239 176.957-177.664 20.023-20.248 24.206-45.355 13.181-68.906-12.055-25.739-39.038-42.673-65.495-40.861-16.763 1.158-29.836 9.502-41.451 21.203-44.497 44.775-89.83 88.725-133.425 134.348-12.687 13.266-18.79 10.757-29.986-0.761-44.765-46.084-90.259-91.46-136.021-136.578-20.548-20.259-45.001-23.905-68.831-12.333-25.332 12.28-41.451 38.137-40.207 64.123 0.858 17.578 9.502 31.005 21.567 43.049 58.353 58.267 116.545 116.684 174.758 175.048 3.85 3.882 7.443 8.001 13.052 13.996zM509.957 441.689c-141.619 0.483-257.745 117.885-256.92 259.729 0.815 143.41 117.017 258.979 260.030 258.582 143.303-0.386 258.325-117.617 257.606-262.518-0.729-141.555-117.66-256.287-260.716-255.794zM638.663 701.075c-0.247 70.429-56.337 126.497-126.626 126.562-70.879 0.075-127.473-57.012-126.926-128.084 0.526-70.161 57.098-125.832 127.58-125.575 70.268 0.247 126.208 56.68 125.972 127.098z" />
            <glyph unicode="&#xe91a;" glyph-name="twitter" d="M1024 765.477c-37.689-16.7-78.129-28.026-120.618-33.083 43.384 25.98 76.594 67.187 92.334 116.139-40.696-24.059-85.616-41.529-133.48-50.999-38.328 40.888-92.846 66.356-153.316 66.356-116.010 0-210.072-94.062-210.072-210.009 0-16.444 1.856-32.505 5.44-47.864-174.559 8.768-329.345 92.399-432.941 219.481-18.109-30.971-28.411-67.059-28.411-105.581 0-72.883 37.113-137.191 93.423-174.815-34.426 1.151-66.804 10.621-95.15 26.363v-2.624c0-101.741 72.435-186.652 168.48-205.978-17.597-4.735-36.153-7.359-55.35-7.359-13.565 0-26.683 1.344-39.544 3.904 26.746-83.505 104.301-144.228 196.188-145.893-71.859-56.31-162.466-89.776-260.879-89.776-16.956 0-33.658 1.024-50.102 2.88 92.975-59.702 203.354-94.511 321.988-94.511 386.423 0 597.648 320.069 597.648 597.648l-0.704 27.195c41.271 29.437 76.976 66.421 105.067 108.526z" />
            <glyph unicode="&#xe91b;" glyph-name="vk" d="M1018.571 212.486c-1.24 2.672-2.396 4.889-3.47 6.665-17.766 31.998-51.717 71.273-101.833 117.836l-1.059 1.066-0.53 0.523-0.536 0.536h-0.538c-22.745 21.682-37.148 36.261-43.18 43.725-11.036 14.218-13.509 28.61-7.477 43.193 4.261 11.018 20.269 34.285 47.985 69.835 14.579 18.84 26.125 33.94 34.651 45.316 61.495 81.754 88.156 133.997 79.977 156.747l-3.176 5.316c-2.134 3.201-7.643 6.129-16.519 8.799-8.896 2.665-20.267 3.105-34.132 1.33l-153.545-1.061c-2.487 0.881-6.039 0.799-10.667-0.269-4.622-1.068-6.934-1.604-6.934-1.604l-2.672-1.335-2.121-1.604c-1.778-1.061-3.733-2.926-5.867-5.593-2.123-2.657-3.899-5.776-5.318-9.329-16.717-43.008-35.723-82.994-57.054-119.958-13.152-22.041-25.23-41.142-36.261-57.316-11.016-16.168-20.257-28.080-27.716-35.716-7.47-7.643-14.211-13.766-20.265-18.392-6.045-4.627-10.659-6.583-13.854-5.867-3.203 0.715-6.218 1.425-9.074 2.134-4.973 3.201-8.973 7.554-11.989 13.062-3.029 5.509-5.068 12.442-6.134 20.795-1.061 8.358-1.688 15.548-1.867 21.593-0.166 6.037-0.090 14.577 0.271 25.594 0.37 11.023 0.536 18.482 0.536 22.392 0 13.509 0.263 28.17 0.792 43.986 0.538 15.817 0.973 28.349 1.337 37.581 0.362 9.242 0.53 19.019 0.53 29.327s-0.627 18.392-1.867 24.259c-1.225 5.86-3.105 11.548-5.584 17.062-2.493 5.509-6.142 9.77-10.93 12.795-4.797 3.021-10.762 5.419-17.86 7.201-18.84 4.263-42.831 6.569-71.982 6.928-66.108 0.71-108.585-3.559-127.423-12.801-7.464-3.905-14.218-9.24-20.257-15.989-6.4-7.823-7.292-12.091-2.672-12.794 21.329-3.195 36.429-10.838 45.316-22.922l3.203-6.403c2.491-4.62 4.978-12.799 7.468-24.526 2.486-11.727 4.090-24.7 4.795-38.911 1.774-25.951 1.774-48.166 0-66.645-1.78-18.487-3.46-32.879-5.064-43.187s-4.002-18.661-7.199-25.057c-3.203-6.398-5.333-10.308-6.401-11.727-1.066-1.419-1.955-2.314-2.661-2.665-4.62-1.77-9.425-2.672-14.398-2.672-4.98 0-11.019 2.491-18.127 7.47-7.105 4.978-14.48 11.817-22.123 20.526-7.643 8.711-16.263 20.885-25.863 36.522-9.593 15.638-19.546 34.119-29.854 55.445l-8.528 15.466c-5.331 9.949-12.614 24.437-21.856 43.449-9.247 19.019-17.421 37.417-24.526 55.189-2.84 7.464-7.107 13.146-12.794 17.057l-2.669 1.604c-1.774 1.419-4.622 2.926-8.528 4.532-3.912 1.604-7.994 2.754-12.263 3.462l-146.084-1.061c-14.928 0-25.057-3.382-30.39-10.136l-2.134-3.195c-1.066-1.78-1.604-4.622-1.604-8.534 0-3.91 1.066-8.71 3.201-14.392 21.326-50.121 44.517-98.458 69.573-145.020s46.83-84.068 65.308-112.486c18.482-28.439 37.32-55.279 56.515-80.507 19.195-25.238 31.901-41.411 38.117-48.517 6.224-7.119 11.113-12.441 14.667-15.994l13.331-12.794c8.53-8.532 21.057-18.75 37.585-30.655 16.532-11.912 34.834-23.639 54.916-35.2 20.086-11.542 43.452-20.961 70.113-28.246 26.657-7.292 52.603-10.218 77.84-8.807h61.314c12.435 1.074 21.856 4.984 28.259 11.733l2.121 2.672c1.427 2.121 2.762 5.417 3.994 9.852 1.247 4.443 1.867 9.337 1.867 14.661-0.364 15.281 0.799 29.053 3.458 41.314 2.657 12.258 5.686 21.499 9.074 27.723 3.386 6.218 7.206 11.466 11.458 15.72 4.261 4.263 7.298 6.846 9.079 7.735 1.77 0.894 3.184 1.501 4.25 1.866 8.53 2.842 18.569 0.090 30.132-8.271 11.554-8.353 22.39-18.666 32.526-30.924 10.131-12.269 22.302-26.033 36.517-41.314 14.224-15.286 26.661-26.65 37.32-34.125l10.659-6.398c7.119-4.269 16.36-8.179 27.736-11.733 11.356-3.552 21.305-4.441 29.848-2.665l136.482 2.129c13.499 0 24.003 2.235 31.454 6.67 7.466 4.443 11.901 9.337 13.331 14.661 1.427 5.33 1.503 11.376 0.271 18.136-1.264 6.743-2.51 11.458-3.75 14.123z" />
            <glyph unicode="&#xe91c;" glyph-name="youtube" d="M984.087 746.463c-36.963 43.94-105.208 61.863-235.54 61.863h-473.105c-133.315 0-202.716-19.079-239.54-65.86-35.903-45.611-35.903-112.815-35.903-205.827v-177.281c0-180.194 42.598-271.684 275.443-271.684h473.108c113.023 0 175.652 15.816 216.17 54.592 41.551 39.764 59.28 104.689 59.28 217.091v177.281c0 98.089-2.778 165.69-39.913 209.824zM657.411 423.523l-214.835-112.28c-4.803-2.51-10.055-3.756-15.301-3.756-5.939 0-11.865 1.599-17.114 4.776-9.883 5.989-15.918 16.701-15.918 28.256v223.84c0 11.535 6.018 22.237 15.882 28.229 9.867 5.992 22.138 6.402 32.375 1.083l214.835-111.557c10.93-5.675 17.794-16.959 17.811-29.27 0.013-12.321-6.821-23.621-17.735-29.323z" />
            <glyph unicode="&#xe91d;" glyph-name="director" horiz-adv-x="1041" d="M1039.186 11.932c-34.712 180.068-158.373 327.593-325.424 392.678l-145.356-236.475-4.339 154.034 19.525 84.61h-123.661l19.525-84.61-6.508-154.034-147.525 236.475c-167.051-65.085-290.712-212.61-325.424-392.678-8.678-39.051 23.864-75.932 65.085-75.932h909.017c41.22 0 73.763 36.881 65.085 75.932zM739.797 723.525c0-121.016-98.103-219.119-219.119-219.119s-219.119 98.103-219.119 219.119c0 121.016 98.103 219.119 219.119 219.119s219.119-98.103 219.119-219.119z" />
            <glyph unicode="&#xe91e;" glyph-name="eye" horiz-adv-x="1489" d="M744.727 960c-484.073 0-744.727-363.055-744.727-512s260.655-512 744.727-512 744.727 363.055 744.727 512-260.655 512-744.727 512zM744.727 168.727c-153.6 0-279.273 125.673-279.273 279.273s125.673 279.273 279.273 279.273 279.273-125.673 279.273-279.273c0-153.6-125.673-279.273-279.273-279.273zM912.291 448c0-92.543-75.021-167.564-167.564-167.564s-167.564 75.021-167.564 167.564c0 92.543 75.021 167.564 167.564 167.564s167.564-75.021 167.564-167.564z" />
            <glyph unicode="&#xe91f;" glyph-name="envelope" d="M512 301.714l-126.683 110.885-362.203-310.491c13.166-12.215 30.939-19.822 50.542-19.822h876.69c19.529 0 37.23 7.607 50.322 19.822l-361.984 310.491-126.683-110.885zM1000.887 793.893c-13.166 12.288-30.866 19.822-50.542 19.822h-876.69c-19.529 0-37.23-7.607-50.395-19.968l488.741-418.889 488.887 419.035zM0 749.495v-607.671l353.499 300.398zM670.501 442.222l353.499-300.398v607.89z" />
            <glyph unicode="&#xe920;" glyph-name="skype" d="M981.245 373.873c3.821 24.176 5.833 48.909 5.833 74.154 0 262.39-212.698 475.083-475.095 475.083-25.178 0-49.983-2.074-74.138-5.852-43.755 27.073-95.398 42.741-150.742 42.741-158.553 0-287.090-128.52-287.090-287.090 0-55.333 15.677-106.932 42.739-150.775-3.745-24.217-5.807-48.871-5.807-74.116 0-262.409 212.693-475.038 475.029-475.038 25.2 0 50.012 1.943 74.164 5.754 43.8-27.021 95.4-42.731 150.733-42.731 158.596 0 287.119 128.554 287.119 287.119 0.012 55.354-15.656 106.942-42.743 150.752zM737.548 231.954c-20.098-28.933-49.621-51.542-88.198-67.8-38.656-16.301-84.344-24.412-137.105-24.412-63.237 0-115.593 11.066-156.92 33.411-29.295 16.001-53.121 37.465-71.438 64.232-18.355 26.788-27.662 53.021-27.662 78.599 0 15.089 5.754 28.211 16.955 38.91 11.318 10.777 25.895 16.179 43.1 16.179 14.094 0 26.2-4.245 36.056-12.656 9.782-8.409 17.989-20.634 24.7-36.765 8.044-18.689 16.782-34.311 26.078-46.776 9.24-12.311 22.243-22.588 39.084-30.633 16.655-8.066 38.822-12.099 66.56-12.099 37.96 0 68.638 8.211 92.117 24.409 23.598 16.346 34.932 36.234 34.932 60.265 0 19.167-6.111 34.389-18.643 46.257-12.646 12.023-28.978 21.179-49.245 27.566-20.346 6.454-47.662 13.299-81.894 20.51-45.967 10.032-84.411 21.71-115.543 35.12-31.173 13.461-55.999 31.861-74.4 55.104-18.439 23.471-27.633 52.645-27.633 87.198 0 32.949 9.706 62.415 29.138 88.060 19.422 25.716 47.521 45.4 84.161 59.111 36.511 13.706 79.494 20.562 128.737 20.562 39.379 0 73.443-4.557 102.275-13.622 28.754-9.132 52.723-21.184 71.888-36.306 19.043-15.089 33.056-31.004 41.932-47.705 8.868-16.751 13.334-33.111 13.334-49.076 0-14.844-5.754-28.307-16.967-40.106-11.211-11.815-25.552-17.839-42.301-17.784-15.098 0-26.943 3.483-35.156 10.856-7.999 7.133-16.401 18.489-25.488 34.316-11.487 22.084-25.245 39.289-41.243 51.595-15.577 12.077-41.277 18.365-77.038 18.289-33.087 0-59.561-6.761-79.542-19.984-20.105-13.434-29.716-29.021-29.761-47.283 0.033-11.444 3.323-21.093 9.944-29.345 6.723-8.328 16.077-15.544 28.1-21.626 12.027-6.178 24.262-10.956 36.556-14.394 12.439-3.526 33.078-8.623 61.765-15.372 35.977-7.754 68.61-16.417 97.933-25.859 29.266-9.49 54.242-20.934 74.876-34.568 20.798-13.594 37.053-30.925 48.657-51.859 11.687-20.967 17.508-46.576 17.508-76.711 0.045-36.287-10.063-68.922-30.209-97.809z" />
            <glyph unicode="&#xe921;" glyph-name="surprise" d="M69.094 351.424h40.265v-378.993c0-21.091 15.338-36.429 36.429-36.429h732.422c21.091 0 36.429 15.338 36.429 36.429v378.993h40.263c21.091 0 36.429 14.7 36.429 36.429v264.591c0 21.091-15.338 37.708-36.429 37.708h-180.229c84.362 44.737 127.183 85.641 133.574 132.936 3.834 28.759-5.113 70.303-67.107 108.011-65.829 39.623-120.153 31.314-154.665 17.255-56.241-23.008-106.092-79.25-146.995-167.448-6.391-13.421-11.504-26.204-16.617-38.346-5.113 12.142-10.225 24.925-16.617 38.346-41.542 88.198-90.754 144.44-146.995 167.448-34.512 14.059-88.837 22.368-154.665-17.257-62.633-37.708-70.941-79.888-67.107-108.649 5.751-46.654 48.571-87.558 132.936-132.295h-201.322c-21.091 0-36.429-16.617-36.429-37.708v-264.593c0-21.729 15.34-36.427 36.429-36.427zM186.052 351.424h287.601v-338.73h-287.601v338.73zM837.946 12.694h-287.599v338.73h287.601v-338.73zM914.64 428.116h-364.293v185.341h364.293v-185.341zM609.144 748.951c31.955 69.024 69.024 113.762 106.732 129.1 9.587 3.834 19.174 5.751 29.399 5.751 17.895 0 36.429-5.751 56.241-17.895 19.812-12.142 31.955-24.925 31.316-32.595-4.474-34.512-116.319-95.866-245.419-136.132 5.753 15.342 12.783 33.238 21.729 51.771zM212.896 833.313c-1.279 7.67 10.866 20.451 31.316 32.595 19.812 12.142 38.346 17.895 56.241 17.895 10.225 0 19.812-1.917 29.399-5.751 59.437-24.287 104.175-114.4 129.1-180.869-129.74 40.263-241.585 101.617-246.057 136.129zM109.36 613.46h364.293v-185.343h-364.293v185.343z" />
            <glyph unicode="&#xe922;" glyph-name="share" d="M811.375 302.14c-58.897 0-111.415-28.066-145.010-71.442l-281.302 157.13c6.591 18.924 10.206 39.336 10.206 60.385 0 21.262-3.615 41.462-10.419 60.598l281.090 156.917c33.382-43.588 86.113-71.867 145.223-71.867 100.784 0 183.070 82.073 183.070 183.070s-82.073 183.070-183.070 183.070-183.070-82.073-183.070-183.070c0-21.262 3.615-41.674 10.419-60.598l-280.877-156.917c-33.382 43.801-86.113 71.867-145.223 71.867-100.784 0-183.070-82.073-183.070-183.070s82.286-183.070 183.282-183.070c59.11 0 111.841 28.279 145.435 72.080l281.090-157.13c-6.804-19.136-10.631-39.761-10.631-61.023 0-100.784 82.073-183.070 183.070-183.070s183.070 82.073 183.070 183.070-82.286 183.070-183.282 183.070zM811.375 902.379c69.316 0 125.661-56.346 125.661-125.661s-56.346-125.661-125.661-125.661-125.661 56.346-125.661 125.661 56.558 125.661 125.661 125.661zM212.625 322.551c-69.316 0-125.661 56.346-125.661 125.661s56.346 125.661 125.661 125.661 125.661-56.346 125.661-125.661-56.558-125.661-125.661-125.661zM811.375-6.379c-69.316 0-125.661 56.346-125.661 125.661s56.346 125.661 125.661 125.661 125.661-56.346 125.661-125.661c0-69.316-56.346-125.661-125.661-125.661z" />
            <glyph unicode="&#xe923;" glyph-name="telegram" d="M1005.095 912.429c-16.677 21.787-42.537 34.276-70.972 34.276-18.367 0-37.388-5.111-56.562-15.178l-816.349-428.021c-58.022-30.471-62.057-76.351-61.096-94.642 0.922-18.406 9.798-63.556 70.664-87.725l104.325-41.269c19.789-7.839 41.922-11.873 65.746-11.873 3.766 0 7.378 0.5 11.105 0.692-1.422-1.844-3.151-3.266-4.457-5.187-19.443-29.088-20.404-68.513-2.805-110.973 0.269-0.73 0.538-1.345 0.807-1.96 30.856-68.359 65.17-145.517 69.32-156.238 10.221-26.667 36.274-45.035 64.862-45.035 44.036 0 57.1 21.211 129.148 138.485 5.61 8.607 18.098 28.589 20.212 54.026 8.415-3.42 16.331-6.571 23.094-9.299l115.584-47.11c23.171-9.453 43.459-17.791 54.141-22.21 3.305-2.037 6.801-3.766 10.452-5.264 8.146-3.228 16.83-4.88 25.553-4.88 52.566 0 65.17 45.534 71.932 69.934 3.343 12.066 7.954 28.781 12.911 47.225l176.296 647.776c13.295 48.916-3.036 80.156-13.91 94.45zM450.615 124.669c0 0-65.4-106.477-70.972-106.477-0.154 0-0.231 0.077-0.307 0.231-6.417 17.253-71.049 160.465-71.049 160.465-11.912 28.704-9.76 53.296 10.721 53.296 4.496 0 9.875-1.191 16.177-3.804l50.184-26.091c8.377-5.725 17.522-10.682 27.589-14.64l2.536-0.961 4.726-2.382c38.771-20.519 51.106-27.935 30.395-59.636zM952.529 836.116l-176.219-647.776c-9.952-36.504-18.252-66.361-18.406-66.361-0.154 0.077-0.346 0.769-0.346 0.884 0 0.231-28.742 11.989-63.863 26.36l-115.661 47.11c-35.121 14.217-92.721 37.234-128.034 50.837l-5.841 2.344-21.595 11.22c-21.403 16.408-23.286 43.459-1.768 66.399l357.818 383.14c14.371 15.332 19.789 23.247 16.677 23.247-2.459 0-10.413-5.111-23.709-15.524l-452.729-357.126c-19.751-15.409-49.761-24.016-77.965-24.016-14.448 0-28.473 2.306-40.424 7.032l-104.248 41.231c-35.236 13.948-36.581 39.693-3.036 57.369l816.426 428.098c9.414 4.918 17.676 7.224 24.515 7.224 17.56 0 25.553-15.37 18.406-41.692z" />
            <glyph unicode="&#xe924;" glyph-name="viber" d="M900.346 845.441c-80.944 79.356-211.808 117.808-389.022 114.343-178.69-3.514-298.135-34.878-375.899-98.706-75.188-61.708-110.206-152.004-110.206-284.167v-134.883c0-156.024 83.606-327.554 243.397-353.508 18.447-3.018 35.825 9.524 38.821 27.976 2.996 18.443-9.528 35.825-27.976 38.821-121.182 19.683-186.571 162.412-186.571 286.712v134.883c0 189.508 70.221 308.344 419.759 315.22 158.465 3.14 272.839-28.851 340.312-95.007 52.581-51.561 78.143-123.591 78.143-220.213v-134.883c0-204.251-91.677-294.341-326.814-320.868h-166.734c-8.973 0-17.581-3.564-23.924-9.912l-117.483-117.483c-13.214-13.214-13.214-34.639 0-47.853 6.605-6.605 15.267-9.912 23.924-9.912s17.319 3.302 23.924 9.912l107.576 107.576h154.607c1.245 0 2.495 0.068 3.735 0.208 134.568 14.946 226.718 49.969 289.992 110.224 66.53 63.359 98.873 154.328 98.873 278.113v134.879c0 114.135-33.119 204.481-98.435 268.531zM533.118 738.993c0.005 0 0.005 0 0.014 0 54.521 0 105.78-21.235 144.335-59.79 38.559-38.559 59.795-89.827 59.79-144.357 0-18.686 15.145-33.836 33.831-33.836 0.005 0 0.005 0 0.005 0 18.686 0 33.836 15.145 33.836 33.831 0.005 72.607-28.269 140.87-79.609 192.21-51.336 51.34-119.585 79.609-192.188 79.609-0.005 0-0.018 0-0.023 0-18.686 0-33.831-15.149-33.831-33.836 0.005-18.682 15.154-33.831 33.84-33.831zM533.109 620.008c46.955-0.009 85.163-38.212 85.167-85.163 0.005-18.686 15.149-33.836 33.84-33.831 18.691 0 33.836 15.154 33.831 33.84-0.014 84.256-68.57 152.812-152.83 152.825h-0.005c-18.686 0-33.831-15.145-33.836-33.831 0-18.686 15.145-33.84 33.831-33.84zM381.389 562.031c-15.425-10.548-19.381-31.603-8.838-47.027s31.603-19.377 47.027-8.833c12.131 8.292 40.544 27.718 38.55 66.553-1.263 23.243-22.228 56.429-39.592 80.177-25.399 34.747-47.289 55.676-64.924 62.163-16.467 6.131-33.687 6.262-51.218 0.379-36.313-12.235-62.678-34.346-76.239-63.941-13.205-28.81-12.912-61.92 0.853-95.769 32.51-79.753 78.021-149.577 135.574-207.829 57.95-57.246 127.769-102.757 207.554-135.285 17.265-7.024 34.346-10.539 50.763-10.539 15.745 0 30.881 3.23 44.984 9.695 29.595 13.566 51.701 39.926 63.95 76.284 5.865 17.491 5.734 34.702-0.347 51.056-6.533 17.762-27.466 39.647-62.208 65.046-23.753 17.365-56.939 38.329-80.272 39.597-38.753 1.949-58.162-26.415-66.454-38.546-10.548-15.425-6.6-36.48 8.824-47.032 15.429-10.552 36.48-6.6 47.032 8.824 3.681 5.382 5.784 7.827 6.988 8.897 18.993-6.086 73.153-45.877 82.902-61.126 0.239-0.974 0.293-2.459-0.609-5.161-4.268-12.673-12.591-29.261-27.998-36.326-14.432-6.605-30.831-2.553-42.029 1.999-71.493 29.148-133.909 69.774-185.231 120.469-50.984 51.606-91.61 114.022-120.74 185.488-4.566 11.224-8.621 27.633-2.012 42.051 7.060 15.407 23.654 23.735 36.286 27.994 2.698 0.902 4.182 0.853 5.211 0.605 15.253-9.767 55.022-63.896 61.112-82.893-1.074-1.187-3.514-3.293-8.897-6.97z" />
            <glyph unicode="&#xe925;" glyph-name="whatsapp" d="M1024 461.187c0-275.49-225.041-498.813-502.693-498.813-88.144 0-170.951 22.528-242.995 62.066l-278.312-88.439 90.738 267.628c-45.773 75.162-72.135 163.317-72.135 257.559 0 275.49 225.064 498.813 502.704 498.813 277.675 0 502.693-223.323 502.693-498.813zM521.307 880.56c-233.062 0-422.639-188.132-422.639-419.374 0-91.762 29.912-176.742 80.509-245.874l-52.804-155.75 162.418 51.621c66.731-43.816 146.671-69.37 232.528-69.37 233.028 0 422.639 188.109 422.639 419.351s-189.599 419.396-422.65 419.396zM775.157 346.305c-3.106 5.086-11.31 8.158-23.62 14.268-12.334 6.11-72.932 35.703-84.196 39.765-11.298 4.073-19.536 6.121-27.739-6.11-8.203-12.242-31.824-39.765-39.026-47.923-7.191-8.181-14.37-9.205-26.704-3.083-12.311 6.11-52.008 19.035-99.078 60.678-36.625 32.404-61.36 72.408-68.551 84.662-7.179 12.231-0.751 18.842 5.404 24.929 5.552 5.484 12.334 14.279 18.489 21.413 6.178 7.145 8.226 12.231 12.311 20.4 4.13 8.158 2.071 15.292-1.024 21.424-3.072 6.11-27.739 66.276-38.002 90.761-10.263 24.462-20.514 20.389-27.716 20.389-7.179 0-15.406 1.024-23.62 1.024s-21.572-3.061-32.87-15.292c-11.287-12.242-43.11-41.825-43.11-101.979 0-60.166 44.134-118.295 50.313-126.441 6.155-8.146 85.22-135.623 210.489-184.582 125.281-48.936 125.281-32.609 147.877-30.561 22.574 2.037 72.886 29.571 83.194 58.106 10.24 28.581 10.24 53.055 7.179 58.152z" />
            <glyph unicode="&#xe926;" glyph-name="surprise-02" d="M786.4 748.2c18.6 20 30.2 47.2 30.2 77.2 0 62.6-50 112.6-110.6 112.6-46 0-152-68.8-194.4-130.6-43.8 61.8-149.4 128.6-193.6 128.6-60.4 0-110.6-50-110.6-112.6 0-29 10.8-55.2 28.2-75h-213.6v-269h58.4v-521.4h863.4v521.2h58.2v269h-215.6zM706 896.2c37.6 0 68.8-31.2 68.8-73 0-35.2-24.6-65.4-56.4-71.8h-169.2c-10.8 3.2-14.2 7-14.2 9.2 0 35.6 125 135.6 171 135.6zM318 896.2c43.8 0 171-100 171-135.6 0-3.2-7.4-6.8-12.8-9.2h-170.4c-31.8 6.4-56.4 36.6-56.4 71.8-0.2 39.8 31.2 73 68.6 73zM386.8-0.2h-264.8v479.4h264.8v-479.4zM386.8 518.8h-323v187.6h323.2v-187.6zM595.2-0.2h-166.8v706.8h166.8v-706.8zM901.8-0.2h-264.8v479.4h264.8v-479.4zM960 518.8h-323v187.6h323.2v-187.6z" />
            <glyph unicode="&#xe927;" glyph-name="discount-hand" d="M906.082 574.13c-38.814 32.344-92.104 35.050-132.982 10.15 3.352 18.498 5.11 37.542 5.11 56.99 0 175.748-142.982 318.73-318.732 318.73-175.748 0-318.728-142.982-318.728-318.73 0-80.754 30.204-154.574 79.886-210.8-83.682-29.226-143.886-108.946-143.886-202.472v-291.998h373.096v191.312h239.362l232.488 286.138c39.448 48.552 32.444 120.63-15.614 160.68zM389.846 187.312v-63.772h-253.096v104.456c0 85.136 69.262 154.398 154.398 154.398h298.756c18.62 0 33.77-15.15 33.77-33.772s-15.15-33.77-33.77-33.77h-127.544v-60h127.542c51.706 0 93.77 42.066 93.77 93.77 0 14.878-3.5 28.952-9.694 41.46l117.56 132.252c19.798 22.274 53.242 24.776 76.132 5.698 22.956-19.128 26.302-53.558 7.458-76.748l-214.48-263.974h-270.802zM389.846-4h-253.096v67.542h253.096v-67.542zM459.478 900c142.664 0 258.73-116.066 258.73-258.73 0-79.86-36.376-151.376-93.42-198.874h-330.618c-57.044 47.498-93.42 119.014-93.42 198.874 0 142.664 116.064 258.73 258.728 258.73zM360.532 629.462c41.716 0 73.2 27.55 73.2 76.744 0 48.8-31.484 76.742-73.2 76.742s-73.202-27.942-73.202-76.742c0.002-49.194 31.486-76.744 73.202-76.744zM360.532 740.446c8.658 0 17.316-7.872 17.316-34.238 0-26.37-8.658-34.24-17.316-34.24s-17.316 7.872-17.316 34.24c0 26.366 8.658 34.238 17.316 34.238zM489.226 576.334c0-49.196 31.484-76.744 73.2-76.744s73.202 27.548 73.202 76.744c0 48.8-31.484 76.742-73.202 76.742s-73.2-27.942-73.2-76.742zM579.742 576.334c0-26.37-8.658-34.24-17.316-34.24s-17.316 7.872-17.316 34.24c0 26.368 8.658 34.238 17.316 34.238s17.316-7.87 17.316-34.238zM400.676 503.526l188.118 275.488h-66.51l-188.12-275.488z" />
            <glyph unicode="&#xe928;" glyph-name="bracket" d="M595.598 866.94v93.060c-47.24 0-110.134-24.642-144.156-79.694-42.991-69.562-16.264-146.235 3.49-185.745 69.615-139.237-26.528-246.563-26.528-246.563s96.144-107.326 26.531-246.56c-19.757-39.513-46.484-116.186-3.493-185.745 34.023-55.051 96.916-79.694 144.156-79.694v93.060c-21.379 0-50.569 12.216-64.993 35.558-18.296 29.599-5.984 68.108 7.566 95.204 41.533 83.069 53.686 152.445 41.514 212.093-6.173 30.254-18.482 55.194-33.213 76.086 14.731 20.892 29.156 45.832 35.332 76.086 12.172 59.648-2.1 129.022-43.633 212.093-13.546 27.093-25.858 65.604-7.563 95.201 14.421 23.343 43.611 35.558 64.99 35.558z" />
            <glyph unicode="&#xe929;" glyph-name="star" d="M946.199 625.681l-249.778 17.946c-5.217 0.417-9.807 3.547-11.686 8.555l-95.154 231.624c-13.146 31.927-42.777 51.75-77.417 51.75s-64.062-19.824-77.417-51.959l-95.362-231.832c-2.087-4.799-6.469-8.138-11.686-8.555l-249.361-17.946c-33.805-1.878-62.601-23.997-73.661-56.55-11.268-32.97-1.878-67.609 24.832-90.354l193.020-159.424c3.965-3.339 5.843-8.764 4.591-13.772l-58.845-240.805c-6.886-25.040-2.087-50.915 13.146-71.156 15.65-20.45 40.065-32.761 65.731-32.761 15.859 0 31.3 4.799 44.029 13.355l210.965 131.253c4.382 2.713 10.016 2.713 14.398 0l213.052-130.836c13.355-8.973 28.796-13.772 44.447-13.772 23.997 0 47.785 11.477 63.227 30.883 16.068 20.032 21.91 46.116 16.068 72.2l-59.054 241.431c-1.252 5.217 0.626 10.642 4.591 13.981l195.941 159.841c26.292 22.536 35.683 57.176 24.623 90.145-10.851 32.553-39.856 54.88-73.243 56.758zM962.267 518.216l-195.524-159.633c-19.198-15.65-27.962-41.525-21.91-65.731l59.054-241.014c3.13-14.19-2.504-23.997-6.26-28.588-5.843-7.303-14.607-11.894-23.371-11.894-5.425 0-10.851 1.669-16.694 5.634l-213.887 131.462c-10.225 6.26-21.91 9.599-34.013 9.599s-23.997-3.339-34.222-9.807l-211.8-131.671c-13.564-8.973-31.718-5.008-41.317 7.512-3.965 5.217-8.138 14.19-4.382 27.336l59.054 241.64c5.843 23.997-2.713 49.663-21.702 65.314l-192.602 159.215c-15.233 13.146-11.060 30.048-9.39 34.848s8.555 20.867 28.588 21.91l249.778 17.946c24.623 1.878 45.907 17.111 55.298 40.065l95.362 231.832c7.721 18.78 25.040 20.241 30.048 20.241s22.328-1.461 30.048-20.241l95.362-231.832c9.39-22.954 30.674-38.187 55.298-40.065l250.195-18.154c19.615-1.043 26.501-17.111 28.17-21.91 1.252-4.382 5.425-21.284-9.181-34.013z" />
            <glyph unicode="&#xe92a;" glyph-name="delivery-truck" d="M952.316 497.274l-26.518 106.070c7.25 1.54 12.69 7.972 12.69 15.678v17.102c0 37.132-30.21 67.34-67.34 67.34h-120.784v35.276c0 18.272-14.864 33.136-33.136 33.136h-615.684c-18.272 0-33.136-14.864-33.136-33.136v-290.74c0-8.854 7.178-16.034 16.034-16.034 8.854 0 16.034 7.178 16.034 16.034v290.74c0 0.59 0.478 1.068 1.068 1.068h615.682c0.59 0 1.068-0.478 1.068-1.068v-290.744c0-8.854 7.178-16.034 16.034-16.034 8.854 0 16.034 7.178 16.034 16.034v18.176h189.138c0.016 0 0.028-0.004 0.042-0.004 0.016 0 0.030 0.002 0.044 0.002 23.274-0.016 43.036-15.292 49.824-36.342h-49.856c-8.854 0-16.034-7.178-16.034-16.034v-34.204c0-27.702 22.536-50.238 50.238-50.238h18.172v-70.546h-41.924c-13.772 39.766-51.574 68.41-95.964 68.41s-82.194-28.644-95.964-68.41h-7.72v120.786c0 8.854-7.178 16.034-16.034 16.034-8.854 0-16.034-7.178-16.034-16.034v-120.782h-332.656c-13.772 39.766-51.574 68.41-95.964 68.41s-82.194-28.644-95.964-68.41h-92.162c-0.59 0-1.068 0.478-1.068 1.068v35.274h69.478c8.854 0 16.034 7.178 16.034 16.034s-7.178 16.034-16.034 16.034h-153.92c-8.854 0-16.034-7.178-16.034-16.034s7.178-16.034 16.034-16.034h52.376v-35.274c0-18.272 14.864-33.136 33.136-33.136h86.608c-0.004-0.356-0.028-0.71-0.028-1.068 0-55.992 45.554-101.544 101.544-101.544s101.544 45.552 101.544 101.544c0 0.36-0.024 0.712-0.028 1.068h361.34c-0.004-0.356-0.028-0.71-0.028-1.068 0-55.992 45.554-101.544 101.544-101.544s101.544 45.552 101.544 101.544c0 0.36-0.024 0.712-0.028 1.068h52.406c8.854 0 16.034 7.178 16.034 16.034v171.022c0.002 42.224-31.152 77.306-71.682 83.476zM750.364 671.398h120.784c19.45 0 35.274-15.824 35.274-35.274v-1.068h-156.058v36.342zM750.364 498.238v104.752h142.47l26.188-104.752h-168.658zM289.67 156.192c-38.31 0-69.478 31.166-69.478 69.478s31.168 69.478 69.478 69.478c38.31 0 69.478-31.166 69.478-69.478s-31.168-69.478-69.478-69.478zM854.046 156.192c-38.31 0-69.478 31.166-69.478 69.478s31.168 69.478 69.478 69.478c38.31 0 69.478-31.166 69.478-69.478s-31.168-69.478-69.478-69.478zM991.934 361.42h-18.172c-10.020 0-18.172 8.152-18.172 18.172v18.172h36.342v-36.344zM289.67 258.806c-18.272 0-33.136-14.864-33.136-33.136s14.864-33.136 33.136-33.136c18.272 0 33.136 14.864 33.136 33.136s-14.864 33.136-33.136 33.136zM854.046 258.806c-18.272 0-33.136-14.864-33.136-33.136s14.864-33.136 33.136-33.136c18.272 0 33.136 14.864 33.136 33.136s-14.864 33.136-33.136 33.136zM665.92 327.214h-239.432c-8.854 0-16.034-7.178-16.034-16.034s7.178-16.034 16.034-16.034h239.432c8.854 0 16.034 7.178 16.034 16.034s-7.178 16.034-16.034 16.034zM255.466 395.624h-205.228c-8.854 0-16.034-7.178-16.034-16.034s7.178-16.034 16.034-16.034h205.228c8.854 0 16.034 7.178 16.034 16.034s-7.18 16.034-16.034 16.034zM557.542 613.26c-6.26 6.26-16.414 6.26-22.674-0.002l-142.584-142.582-74.174 74.174c-6.262 6.262-16.414 6.262-22.674 0-6.262-6.262-6.262-16.412 0-22.674l85.512-85.512c3.13-3.132 7.234-4.696 11.336-4.696s8.208 1.564 11.336 4.696l153.92 153.92c6.262 6.264 6.262 16.414 0.002 22.676z" />
            <glyph unicode="&#xe92b;" glyph-name="man" d="M68.266-64h887.468c37.703 0 68.266 30.562 68.266 68.266v132.781c0.187 78.812-59.437 144.914-137.844 152.828l-113.344 11.812c-60.977 6.141-107.351 57.547-107.211 118.836v19.047c35.766 29.445 59.305 71.141 66.047 116.976 34.922 18.562 54.102 75.93 54.102 113.32 3.164 32.328-19.719 61.406-51.883 65.945v70.586c-0.102 84.789-68.812 153.5-153.601 153.601h-136.531c-84.789-0.102-153.5-68.812-153.601-153.601v-70.586c-32.164-4.539-55.047-33.617-51.883-65.945 0-37.391 19.187-94.758 54.102-113.32 6.742-45.836 30.281-87.531 66.047-116.976v-19.047c0.156-61.312-46.234-112.742-107.242-118.867l-15.773-1.711h-0.258l-97.273-10.102c-78.406-7.914-138.023-74-137.851-152.797v-132.781c0-37.703 30.562-68.266 68.266-68.266zM335.75 301.227l103.594-64.75-35.937-83.898-129.211 118.539c22.531 5.25 43.586 15.539 61.555 30.109zM460.797 157.867c0 9.422 7.641 17.062 17.070 17.062h68.266c9.43 0 17.070-7.641 17.070-17.062v-34.133c0-9.43-7.641-17.070-17.070-17.070h-68.266c-9.43 0-17.070 7.641-17.070 17.070zM688.249 301.227c17.969-14.57 39.023-24.859 61.555-30.109l-129.211-118.539-35.937 83.898zM489.695 72.532h44.609l38.398-102.398h-121.406zM989.866 137.047v-132.781c0-18.852-15.281-34.133-34.133-34.133h-346.57l-40.453 107.875c16.484 8.156 27.305 24.539 28.336 42.891l1.703-3.891c2.18-5.086 6.687-8.797 12.102-9.961 5.406-1.164 11.039 0.367 15.117 4.109l167.867 153.992 88.75-9.219c61.016-6.133 107.422-57.562 107.281-118.883zM443.734 925.867h136.531c65.953-0.078 119.391-53.516 119.469-119.469v-52.906c-5.156 1.133-10.422 1.711-15.703 1.711-1.023 0-2.047 0-3.055 0-76.547 0-100.812 114.344-101.055 115.555-0.219 0.641-0.484 1.273-0.797 1.875-0.344 1.141-0.805 2.242-1.383 3.281-0.586 0.937-1.266 1.812-2.031 2.609-0.414 0.602-0.859 1.164-1.352 1.703-0.305 0.258-0.68 0.328-1.008 0.57-0.891 0.625-1.844 1.164-2.844 1.602-0.984 0.531-2.008 0.961-3.078 1.281-0.977 0.203-1.977 0.32-2.984 0.359-1.187 0.125-2.391 0.125-3.586 0-0.359 0-0.695 0-1.055 0-0.641-0.234-1.266-0.5-1.875-0.805-1.141-0.336-2.227-0.789-3.266-1.367-0.969-0.602-1.875-1.305-2.695-2.102-0.594-0.383-1.164-0.812-1.703-1.273-1.039-1.211-107.711-123.289-191.867-123.289-11.539 0.172-23.039-1.352-34.133-4.523v55.719c0.078 65.953 53.523 119.391 119.469 119.469zM324.883 570.094c0 0.156-0.117 0.273-0.141 0.43-0.57 2.156-1.258 4.281-2.062 6.367-0.477 0.687-1.008 1.336-1.586 1.945-0.75 1.109-1.641 2.125-2.648 3.016-0.602 0.375-1.227 0.711-1.875 1.008-1.25 0.844-2.609 1.508-4.047 1.984-0.117 0-0.219 0.133-0.336 0.164-18.984 4.937-39.805 49.344-39.805 84.859-1.172 9.531 2 19.086 8.641 26.023-0.289-17.477 3.43-34.797 10.867-50.617 4.141-8.484 14.375-12 22.859-7.859s12.008 14.375 7.859 22.859c-3.789 7.852-12.664 33.398-3.961 47.273 6.953 11.18 25.469 13.516 39.75 13.516 75.539 0 158.719 74.258 196.726 112.641 14.766-42.336 51.031-113.914 127.851-112.719 5.117 0.164 14.094-0.383 16.602-4.664 5.125-8.945-3.414-36.125-14.539-54.937-4.672-8.102-1.953-18.461 6.102-23.219 8.062-4.758 18.445-2.141 23.289 5.859 10.344 17.289 17.242 36.414 20.305 56.32 12.187-4.367 16.883-13.516 16.883-30.594 0-35.516-20.82-79.93-39.797-84.859-0.109 0-0.187-0.117-0.312-0.156-1.687-0.508-3.281-1.281-4.727-2.297-0.398-0.195-0.781-0.406-1.156-0.633-1.219-1.039-2.289-2.25-3.164-3.586-0.398-0.445-0.773-0.914-1.125-1.398-0.469-1.023-0.852-2.086-1.125-3.18-0.43-1.039-0.75-2.125-0.953-3.242 0-0.148-0.125-0.273-0.141-0.422-3.883-42.719-25.523-81.836-59.648-107.828-1.117-0.617-2.164-1.367-3.117-2.219-26.266-18.937-57.844-29.094-90.219-29h-68.266c-32.391-0.055-63.969 10.133-90.211 29.117-0.961 0.859-2.008 1.602-3.125 2.219-34.125 25.992-55.766 65.109-59.648 107.828zM477.867 396.797h68.266c29.703-0.055 59 6.922 85.484 20.359 0.633-33 11.914-64.906 32.156-90.976l-109.617-68.508c-0.477-0.305-0.734-0.852-1.195-1.211-1.297-0.969-2.453-2.117-3.414-3.414-0.305-0.406-0.805-0.648-1.055-1.078l-25.672-42.906h-21.641l-25.75 42.93c-0.258 0.422-0.758 0.664-1.062 1.070-0.961 1.297-2.109 2.453-3.414 3.414-0.461 0.359-0.719 0.906-1.195 1.211l-109.617 68.508c20.242 26.070 31.523 57.984 32.156 90.984 26.508-13.461 55.836-20.445 85.57-20.383zM34.133 137.047c-0.141 61.312 46.242 112.734 107.25 118.883l88.742 9.219 167.867-153.992c4.078-3.742 9.719-5.273 15.125-4.109s9.922 4.875 12.102 9.961l1.703 3.891c1.031-18.352 11.852-34.734 28.328-42.891l-40.414-107.875h-346.57c-18.852 0-34.133 15.281-34.133 34.133z" />
            <glyph unicode="&#xe92c;" glyph-name="check-circle" d="M1020.872 457.7l-76.901 106.086 13.629 130.286c0.742 7.121-3.177 13.903-9.717 16.814l-119.698 53.265-53.265 119.706c-2.927 6.524-9.701 10.435-16.814 9.726l-130.311-13.621-106.078 76.893c-5.782 4.193-13.604 4.193-19.387 0l-106.086-76.893-130.303 13.621c-7.105 0.677-13.854-3.226-16.814-9.709l-53.265-119.706-119.706-53.281c-6.532-2.903-10.451-9.685-9.709-16.798l13.621-130.303-76.893-106.086c-4.193-5.782-4.193-13.604 0-19.387l76.893-106.078-13.621-130.311c-0.75-7.113 3.169-13.903 9.709-16.814l119.706-53.265 53.265-119.706c2.943-6.5 9.701-10.411 16.814-9.726l130.303 13.629 106.086-76.901c5.782-4.193 13.604-4.193 19.387 0l106.078 76.901 130.311-13.629c7.113-0.718 13.879 3.193 16.814 9.709l53.265 119.706 119.698 53.281c6.532 2.911 10.451 9.685 9.717 16.798l-13.629 130.311 76.901 106.078c4.201 5.782 4.201 13.621 0 19.403zM913.52 346.502c-2.395-3.298-3.484-7.363-3.056-11.411l13.016-124.658-114.537-50.99c-3.742-1.645-6.742-4.629-8.395-8.371l-50.95-114.537-124.69 13.032c-4.048 0.419-8.105-0.677-11.395-3.072l-101.489-73.562-101.505 73.562c-2.814 2.056-6.201 3.161-9.677 3.153-0.581 0-1.161 0-1.653-0.081l-124.698-13.032-50.95 114.537c-1.661 3.742-4.645 6.734-8.387 8.395l-114.601 50.966 13.016 124.658c0.419 4.048-0.669 8.113-3.056 11.411l-73.562 101.505 73.562 101.505c2.387 3.298 3.476 7.363 3.056 11.411l-13.016 124.666 114.537 50.982c3.742 1.645 6.734 4.629 8.387 8.371l50.95 114.537 124.698-13.032c4.040-0.403 8.097 0.694 11.395 3.072l101.505 73.562 101.505-73.562c3.29-2.387 7.347-3.476 11.395-3.072l124.69 13.032 50.95-114.537c1.661-3.742 4.653-6.726 8.395-8.387l114.537-50.966-13.016-124.666c-0.427-4.048 0.661-8.113 3.056-11.411l73.554-101.505zM704.873 635.243c-6.451 6.451-16.903 6.451-23.354 0l-268.589-268.589-81.804 81.651c-6.443 6.427-16.879 6.427-23.322 0l-46.821-46.539c-3.105-3.097-4.855-7.306-4.855-11.693s1.75-8.597 4.855-11.693l140.222-140.222c6.443-6.443 16.903-6.443 23.354 0l327.006 327.015c6.443 6.443 6.443 16.903 0 23.354zM412.93 273.173l-116.851 116.851 23.354 23.298 81.836-81.667c6.443-6.435 16.887-6.435 23.338 0l268.589 268.565 23.386-23.386z" />
            <glyph unicode="&#xe92d;" glyph-name="wallet" d="M981.2 514.8h-25v168.8c0 39.6-31.2 70.8-68.8 70.8h-18.8v112.8c0 39.6-29.2 70.8-64.6 70.8 0 0-2 0-4.2 0l-713.2-183.4c-0.2 0-0.6-0.2-0.8-0.2-35.2-2.8-63.8-33-63.8-70.8v-654.8c0-39.6 31.2-70.8 68.8-70.8h796.6c39.6 0 70.8 31.2 70.8 70.8v173.2h23c12.6 0 20.8 8.4 20.8 20.8v271c0 12.6-10.4 21-20.8 21zM808 898.4c10.4-2 20.8-14.6 20.8-31.2v-112.6h-575.4l554.6 143.8zM916.6 28.8c0-16.6-12.6-31.2-29.2-31.2h-796.6c-16.6 0-29.2 14.6-29.2 31.2v654.8c0 16.6 12.6 31.2 29.2 31.2h794.4c16.6 0 29.2-14.6 29.2-31.2v-168.8h-206.4c-87.6 0-156.4-68.8-156.4-156.4s70.8-156.4 156.4-156.4h208.6v-173.2zM960.2 241.6h-252.2c-62.6 0-114.6 52.2-114.6 114.6s52.2 114.6 114.6 114.6h252.2v-229.2zM685 354.2c0-12.6 10.4-20.8 20.8-20.8h18.8c10.4 0 20.8 8.4 20.8 20.8 0 12.6-10.4 20.8-20.8 20.8h-18.6c-12.6 0-21-8.4-21-20.8z" />
            <glyph unicode="&#xe92e;" glyph-name="star-fill" d="M947.2 627.2l-249.6 19.2c-6.4 0-9.6 3.2-12.8 9.6l-96 230.4c-12.8 32-41.6 51.2-76.8 51.2s-64-19.2-76.8-51.2l-96-230.4c-3.2-3.2-6.4-9.6-12.8-9.6l-249.6-19.2c-35.2-3.2-64-25.6-73.6-57.6-12.8-32-3.2-67.2 25.6-89.6l192-160c3.2-3.2 6.4-9.6 3.2-12.8l-54.4-243.2c-6.4-25.6-3.2-51.2 12.8-70.4s41.6-32 67.2-32c16 0 32 3.2 44.8 12.8l211.2 131.2c3.2 3.2 9.6 3.2 16 0l214.4-131.2c12.8-9.6 28.8-12.8 44.8-12.8 25.6 0 48 12.8 64 32s22.4 44.8 16 73.6l-57.6 240c0 6.4 0 9.6 3.2 12.8l195.2 160c25.6 22.4 35.2 57.6 25.6 89.6-19.2 32-48 54.4-80 57.6v0z" />
            <glyph unicode="&#xe92f;" glyph-name="catalog-burger" d="M100.693 960h839.339c46.421 0 83.968-38.229 83.968-85.333s-37.547-85.333-83.968-85.333h-839.339c-46.458 0.385-83.971 38.136-83.971 84.648 0 0.241 0.001 0.482 0.003 0.722v-0.037c0 47.104 37.547 85.333 83.968 85.333zM83.968 533.333h856.064c46.421 0 83.968-38.229 83.968-85.333s-37.547-85.333-83.968-85.333h-856.064c-46.458 0.385-83.971 38.136-83.971 84.648 0 0.241 0.001 0.482 0.003 0.722v-0.037c0 47.104 37.547 85.333 83.968 85.333zM100.693 106.667h503.58c46.421 0 83.968-38.229 83.968-85.333s-37.433-85.333-83.968-85.333h-503.58c-46.458 0.385-83.971 38.136-83.971 84.648 0 0.241 0.001 0.482 0.003 0.722v-0.037c0 47.104 37.547 85.333 83.968 85.333z" />
            <glyph unicode="&#xe930;" glyph-name="accessories" horiz-adv-x="1023" d="M998.57 527.682c-34.755 79.682-105.113 138.172-189.881 158.517l-31.364 71.205c-37.298 86.464-139.020 125.457-225.483 87.311s-125.457-139.020-86.464-225.483v0l31.364-71.205c-27.974-52.556-38.993-112.742-31.364-172.079h-145.801v167.841c0 14.411-11.020 25.43-25.43 25.43h-114.437c-14.411 0-25.43-11.020-25.43-25.43v-167.841h-12.715v73.748c0 14.411-11.020 25.43-25.43 25.43h-57.642c-14.411 0-25.43-11.020-25.43-25.43v-73.748h-11.868c-11.868 0-21.192-9.325-21.192-21.192s9.325-21.192 21.192-21.192h11.868v-73.748c0-14.411 11.020-25.43 25.43-25.43h57.642c14.411 0 25.43 11.020 25.43 25.43v73.748h12.715v-167.841c0-14.411 11.020-25.43 25.43-25.43h115.285c14.411 0 25.43 11.020 25.43 25.43v167.841h154.278c3.391-11.020 7.629-22.040 11.868-33.060 19.497-44.927 50.861-83.073 90.702-111.894v-22.887c0-14.411 11.020-25.43 25.43-25.43h83.073c150.887-32.212 300.079 64.424 331.444 215.311 11.868 58.49 5.934 118.675-18.649 172.079v0zM116.132 375.947v-116.132h-57.642v189.881h57.642v-73.748zM294.146 375.947v-210.225h-114.437v378.066h115.285v-167.841zM569.642 805.722c65.272 28.821 140.715-0.848 169.536-66.119l20.344-46.623c-90.702 5.934-178.861-33.060-235.656-104.265l-20.344 46.623c-28.821 66.119 0.848 141.563 66.119 170.384zM524.715 318.305c-2.543 5.086-4.238 10.172-5.934 15.258h57.642v-89.854c-21.192 21.192-38.993 46.623-51.709 74.596zM717.139 165.722h-115.285v378.066h114.437v-378.066h0.848zM838.358 197.086c-30.517-13.563-63.576-20.344-96.636-20.344v156.821h12.715v-73.748c0-14.411 11.020-25.43 25.43-25.43h57.642c14.411 0 25.43 11.020 25.43 25.43v73.748h16.106c11.868 0 21.192 9.325 21.192 21.192s-9.325 21.192-21.192 21.192h-16.106v73.748c0 14.411-11.020 25.43-25.43 25.43h-57.642c-14.411 0-25.43-11.020-25.43-25.43v-73.748h-12.715v167.841c0 14.411-11.020 25.43-25.43 25.43h-114.437c-14.411 0-25.43-11.020-25.43-25.43v-167.841h-68.662c-21.192 129.695 66.119 251.762 195.815 273.801 129.695 21.192 251.762-66.119 273.801-195.815 17.801-107.656-39.841-212.768-139.020-256.848zM780.715 260.662v189.033h57.642v-189.033h-57.642z" />
            <glyph unicode="&#xe931;" glyph-name="basketball-02" horiz-adv-x="1028" d="M864.627 572.235h-43.294c40.157 169.412-64.627 338.824-234.039 378.98s-338.824-64.627-378.98-234.039c-5.647-23.843-8.784-48.314-8.157-72.784 0-24.471 3.137-48.314 8.784-72.157h-51.451c-10.667 0-18.824-8.157-18.824-18.824v-53.333c0-10.667 8.157-18.824 18.824-18.824h66.51c11.294-29.49 124.235-336.941 64.627-533.333-1.255-5.020 1.255-10.039 6.275-11.922 0.627 0 1.882-0.627 2.51-0.627 4.392 0 7.529 2.51 8.784 6.902 3.137 11.294 6.275 22.588 8.784 34.51 60.235 1.255 119.843 13.176 175.686 35.765 69.020-31.373 149.961-57.725 230.902-57.725h10.039c1.255 0 2.51 0.627 3.765 0.627 1.882-4.392 3.765-9.412 5.647-13.804 1.882-3.765 6.275-6.275 10.667-6.275 1.255 0 2.51 0 3.765 0.627 5.020 1.255 8.157 6.275 6.902 11.294 0 0.627 0 0.627-0.627 1.255-107.294 249.725 41.412 497.569 63.373 532.706h39.529c10.667 0 18.824 8.157 18.824 18.824v53.333c0 10.667-8.784 18.824-18.824 18.824 0 0 0 0 0 0zM750.431 802.51c45.176-67.765 59.608-151.216 38.275-230.275h-105.412c-65.255 81.569-165.647 153.098-203.922 171.922l-10.667 5.020c21.333 23.843 44.549 45.804 69.647 65.882 13.804-12.549 31.373-19.451 50.196-19.451 15.686 0.627 32 3.765 47.059 8.784 31.373 8.784 66.51 18.824 114.824-1.882zM430.431 699.608c8.157 11.922 16.941 23.216 25.725 34.51l15.059-6.902c33.882-16.314 124.863-80.941 187.608-154.98h-174.431c4.392 43.294 1.882 93.49-53.961 127.373v0zM419.765 683.922c48.314-29.49 50.196-71.529 45.804-111.686h-100.392c13.804 39.529 32 77.176 54.588 111.686zM345.098 572.235h-104.784l-1.255 5.647v0.627c0.627 1.255 78.431 145.569 163.137 114.196-23.216-37.647-42.667-77.804-57.098-120.471zM658.824 889.098c26.98-15.686 50.824-36.392 71.529-59.608-40.784 10.039-72.784 0.627-99.765-6.902-29.49-8.157-51.451-14.431-76.549 4.392 25.098 18.196 52.078 34.51 80.314 48.314l20.706 10.039c1.255 0.627 2.51 1.882 3.765 3.765zM569.725 922.98c24.471-5.020 47.686-12.549 70.275-23.843l-14.431-6.902c-30.118-15.059-58.98-32.627-85.961-52.706-12.549 13.804-17.569 26.98-15.059 38.902 5.020 25.725 40.784 41.412 41.412 41.412 1.255 0.627 2.51 1.882 3.765 3.137zM514.51 928.627c8.784 0 17.569-0.627 26.353-1.255-13.804-8.784-30.745-24.471-34.51-45.176-3.137-17.569 3.137-35.765 18.824-53.961-26.98-21.333-51.451-45.176-74.039-70.902-53.333 22.588-108.549 40.784-165.020 54.588 52.706 73.412 138.039 116.706 228.392 116.706zM274.196 795.608c55.843-13.176 110.431-31.373 163.765-53.333-8.784-10.667-16.941-21.961-25.098-33.255-81.569 35.137-153.098-60.235-179.451-102.902-9.412 65.882 5.020 133.020 40.784 189.49v0zM421.647 343.843c2.51-9.412 5.647-18.824 8.784-28.863 16.314-47.686 42.667-90.98 77.804-126.745-16.941-21.333-37.647-40.157-60.235-54.588-90.353 53.961-134.902 115.451-142.431 127.373-15.059 75.294-35.765 149.333-62.118 221.49h1.882c39.529-67.137 102.275-116.078 176.314-138.667v0zM282.353 481.882h39.529l-8.784-37.020c-11.294 11.294-21.333 23.843-30.745 37.020v0zM413.49 379.608c-31.373 11.922-60.235 29.49-85.333 51.451 1.255 1.255 1.882 2.51 2.51 4.392l10.667 46.431h67.765c-3.137-34.51-1.255-68.392 4.392-102.275zM702.118 101.647c-20.078 5.020-39.529 11.294-58.353 19.451 3.765 4.392 7.529 8.784 11.294 13.176 19.451 23.216 35.765 48.314 50.196 74.667-4.392-36.392-5.647-72.157-3.137-107.294zM704 81.569c1.255-10.667 2.51-21.333 4.392-32-39.529 3.765-79.059 11.294-117.333 21.961 13.804 10.667 26.353 21.961 38.275 34.51 24.471-10.039 48.941-18.196 74.667-24.471v0zM568.471 78.431c-35.137 11.294-69.647 26.353-102.275 43.922 20.706 14.431 39.529 32 55.843 52.078 26.353-23.843 56.471-44.549 89.098-59.608-13.804-13.176-27.608-25.098-42.667-36.392v0zM323.765 98.51c0 4.392 0 8.784-0.627 13.176 5.020-3.765 11.294-8.157 17.569-13.176-5.020 0-9.412-0.627-14.431-0.627l-2.51 0.627zM321.882 136.784c-1.882 28.235-5.647 57.098-10.039 84.706 33.882-38.275 73.412-71.529 117.333-98.51-18.824-9.412-38.275-16.314-58.98-20.078-24.471 15.686-41.412 28.235-48.314 33.882v0zM448 111.059c32-18.196 65.882-33.882 101.020-45.804-18.196-11.922-37.647-22.588-58.353-31.373-33.882 16.314-67.137 34.51-98.51 54.588 19.451 5.020 38.275 12.549 55.843 22.588v0zM519.529 202.667c-32 33.882-55.843 74.039-70.902 117.961-1.882 5.647-3.765 11.922-5.647 17.569 46.431-10.667 94.745-10.667 141.176-0.627-14.431-48.314-36.392-93.49-64.627-134.902v0zM555.922 363.922c-35.137 31.373-60.235 72.157-72.784 117.333h130.51c-3.765-37.020-10.039-73.412-19.451-109.176-13.176-3.137-25.725-6.275-38.275-8.157v0zM530.824 361.412c-5.647 0-10.667-0.627-16.314-0.627-26.98 0-53.961 3.765-79.686 11.294-6.902 35.765-9.412 72.157-6.275 108.549h35.765c10.667-44.549 33.882-85.961 66.51-119.216v0zM317.49-3.765c4.392 27.608 6.275 55.843 6.275 83.451h2.51c13.176 0 25.725 1.255 38.275 2.51 32.627-21.333 66.51-40.784 101.647-58.353-47.059-16.941-97.882-26.353-148.706-27.608zM513.882 23.216c20.078 10.039 40.157 21.333 58.353 34.51 45.804-13.804 92.235-23.216 139.922-27.608 4.392-18.824 9.412-37.647 15.686-55.843-73.412-1.255-148.706 20.706-213.961 48.941zM721.569 294.902c-1.255-1.255-2.51-2.51-2.51-4.392-18.824-60.235-50.824-115.451-94.118-161.882-33.255 15.059-64 35.137-91.608 60.235 20.706 28.863 38.275 60.235 51.451 93.49 8.157 20.078 15.059 40.157 21.333 60.863 74.039 22.588 137.412 71.529 178.196 138.039h15.686c-34.51-58.353-60.863-121.098-78.431-186.353v0zM615.529 379.608c8.157 33.255 13.804 67.765 16.941 101.647h82.824c2.51-6.902 5.020-14.431 6.275-21.961 0.627-1.882 1.255-3.765 3.137-5.020-30.118-33.255-67.765-58.98-109.176-74.667v0zM735.373 481.255h10.667c-2.51-3.765-5.020-7.529-8.157-10.667-0.627 3.765-1.255 7.529-2.51 10.667v0zM864.627 500.078h-708.392v53.333h708.392v-53.333z" />
            <glyph unicode="&#xe932;" glyph-name="bicycles" horiz-adv-x="987" d="M271.618 660.677v0l114.623-26.619c1.086-0.543 2.173-1.63 1.63-2.716s-1.086-1.63-2.173-1.63h-115.709v29.878c0 0.543 0.543 1.086 1.63 1.086zM271.618 687.839c-15.754 0-28.792-13.038-28.792-28.792v-29.878c0-15.211 11.951-27.162 27.162-27.162h115.709c16.297 0 29.335 13.581 29.335 29.878 0 13.581-9.235 25.532-22.816 28.792l-114.623 26.619c-1.63 0.543-3.803 0.543-5.976 0.543zM197.195 501.509c93.98 0 170.033-77.683 170.033-173.292s-76.053-173.292-170.033-173.292-170.033 78.226-170.033 173.836 76.053 172.749 170.033 172.749zM197.195 528.671c-108.647 0-197.195-89.634-197.195-199.911s88.547-200.454 197.195-200.454 197.195 90.177 197.195 200.454-88.547 199.911-197.195 199.911zM789.322 501.509c93.98 0 170.033-77.683 170.033-173.292s-76.053-173.292-170.033-173.292-170.033 78.226-170.033 173.836 76.053 172.749 170.033 172.749zM789.322 528.671c-108.647 0-197.195-89.634-197.195-200.454s88.547-200.454 197.195-200.454 197.195 90.177 197.195 200.454-88.547 200.454-197.195 200.454zM470.442 320.611h-273.248c-3.259 0-5.976 1.63-7.062 4.346-1.63 2.716-1.086 5.976 0.543 8.149l160.798 237.937c2.716 3.803 7.605 4.889 11.408 2.173s4.889-7.605 2.173-11.408l-152.106-224.9h254.234l205.343 258.58c2.716 3.259 8.149 4.346 11.408 1.086 3.259-2.716 4.346-8.149 1.086-11.408l-208.059-261.297c-1.63-2.173-3.803-3.259-6.519-3.259zM483.48 292.906c-3.259 0-5.976 1.63-7.605 4.889l-145.587 313.447c-1.63 4.346 0 8.692 3.803 10.865 4.346 1.63 8.692 0 10.865-3.803l145.587-313.99c1.63-4.346 0-8.692-3.803-10.865-1.086-0.543-2.173-0.543-3.259-0.543zM789.322 320.611c-3.259 0-5.976 1.63-7.605 4.889l-157.538 371.573c-1.63 4.346 0 8.692 4.346 10.865 4.346 1.63 8.692 0 10.865-4.346l157.538-372.117c1.63-4.346 0-8.692-4.346-10.865-1.086 0-2.173 0-3.259 0zM553.558 290.19c6.519 0 11.951-5.432 11.951-11.951v-6.519c0-6.519-5.432-11.951-11.951-11.951h-71.707c-6.519 0-11.951 5.432-11.951 11.951v6.519c0 6.519 5.432 11.951 11.951 11.951h71.707zM553.558 306.487h-71.707c-15.754 0-28.248-12.494-28.248-28.248v-6.519c0-15.754 12.494-28.248 28.248-28.248h71.707c15.754 0 28.248 12.494 28.248 28.248v6.519c-0.543 15.754-13.038 28.248-28.248 28.248zM555.731 675.888c-1.63 0-3.259 0-4.889 0-7.605 0.543-13.581 6.519-13.038 14.124s6.519 13.581 14.124 13.038v0c3.259 0 83.115-2.173 105.931 64.645 2.173 7.062 10.321 10.865 17.384 8.692s10.865-10.321 8.692-17.384c-22.816-65.732-91.264-83.115-128.204-83.115z" />
            <glyph unicode="&#xe933;" glyph-name="bike-transport" horiz-adv-x="1037" d="M279.804 780.084c33.296 0 60.751-27.455 60.751-60.751v-216.132h-175.242v216.132c0 33.296 27.455 60.751 60.751 60.751h53.741zM279.804 809.292h-53.741c-49.652 0-89.958-40.306-89.958-89.958v-216.132c0-16.356 12.851-29.207 29.207-29.207h175.242c16.356 0 29.207 12.851 29.207 29.207v216.132c0 49.652-40.306 89.958-89.958 89.958v0zM279.804 565.705c33.296 0 60.751-26.871 60.751-60.751 0 0 0 0 0 0h-175.242c0 33.296 27.455 60.751 60.751 60.751 0 0 0 0 0 0h53.741zM279.804 594.912h-53.741c-49.652 0-89.958-40.306-89.958-89.958 0-16.356 12.851-29.207 29.207-29.207h175.242c16.356 0 29.207 12.851 29.207 29.207 0 49.652-40.306 89.958-89.958 89.958zM469.066 738.026c30.375 0 54.325-31.544 54.325-71.265s-24.534-71.265-54.325-71.265c-23.366 0-43.226 18.693-50.82 45.563-2.337 8.178-3.505 16.94-3.505 25.702-0.584 39.722 23.95 71.265 54.325 71.265zM469.066 767.233c-46.147 0-83.532-44.979-83.532-100.472 0-11.683 1.752-22.782 4.673-33.88 11.683-39.722 43.226-66.592 78.859-66.592 46.147 0 83.532 44.979 83.532 100.472s-37.385 100.472-83.532 100.472zM414.156 611.852c-2.337 0-4.673 1.168-6.426 2.921-2.921 3.505-2.921 9.346 1.168 12.267l50.82 43.226-10.515 66.008c-0.584 4.673 2.337 9.346 7.594 9.93 4.673 0.584 9.346-2.337 9.93-7.594l11.099-71.265c0.584-2.921-0.584-5.841-2.921-8.178l-54.325-46.147c-2.337 0-4.089-1.168-6.426-1.168zM880.885 319.781c-1.752 0-4.089 0.584-5.841 1.752l-411.82 338.802c-3.505 2.921-4.089 8.762-1.168 12.267s8.762 4.089 12.267 1.168l411.82-338.802c3.505-2.921 4.089-8.762 1.168-12.267-1.752-2.337-4.089-2.921-6.426-2.921zM903.667 313.94h-117.412c-8.178 0-14.604 6.426-14.604 14.604s6.426 14.604 14.604 14.604h117.412c8.178 0 14.604-6.426 14.604-14.604s-6.426-14.604-14.604-14.604zM518.133 381.7c-4.673 0-8.762 4.089-8.762 8.762v112.739c0 1.168 0 2.337 0.584 3.505l41.474 88.79c2.337 4.673 7.010 6.426 11.683 4.089s6.426-7.010 4.089-11.683l-40.89-87.037v-110.987c0.584-4.089-2.921-8.178-8.178-8.178zM632.625 420.253c69.513 1.168 127.343-53.741 128.511-123.254s-53.741-127.343-123.254-128.511c-69.513-1.168-127.343 53.741-128.511 123.254 0 0.584 0 1.752 0 2.337-1.168 68.929 54.325 125.006 123.254 126.175zM632.625 449.46c-85.869 1.168-156.55-67.76-157.718-153.045s67.176-155.966 153.045-157.134c85.869-1.168 155.966 67.176 157.134 153.045 0 0.584 0 1.168 0 1.752 1.168 84.701-67.76 154.213-152.461 155.382 0 0 0 0 0 0zM632.625 366.512c40.306 0.584 73.018-30.959 74.186-71.265 0.584-40.306-30.959-73.018-71.265-74.186s-73.018 30.959-74.186 71.265c0 0.584 0 1.168 0 1.168-0.584 40.306 31.544 72.434 71.265 73.018zM632.625 384.037c-49.652 0.584-90.542-39.137-91.71-88.79-0.584-49.652 39.137-90.542 88.79-91.71s90.542 39.137 91.71 88.79c0 0.584 0 1.168 0 1.168 0 49.652-39.722 89.958-88.79 90.542zM901.914 436.609c59.582 1.168 109.234-46.147 110.403-106.314s-46.147-109.234-106.314-110.403-109.234 46.147-110.403 106.314c0 0.584 0 1.168 0 2.337 0 58.998 47.315 107.482 106.314 108.066 0.584 0 0.584 0 0 0zM902.499 465.816c-75.938 1.168-138.442-59.582-139.61-135.521s59.582-138.442 135.521-139.61c75.938-1.168 138.442 59.582 139.61 135.521 0 0.584 0 1.168 0 1.752 0 75.938-60.167 137.273-135.521 137.857zM901.914 391.046c34.464 0.584 63.087-26.871 63.671-61.335s-26.871-63.087-61.335-63.671c-34.464-0.584-63.087 26.871-63.671 61.335 0 0.584 0 0.584 0 1.168 0 33.88 27.455 61.919 61.335 62.503 0 0 0 0 0 0zM901.914 408.57c-44.395 0.584-80.612-34.464-81.196-78.859s34.464-80.612 78.859-81.196 80.612 34.464 81.196 78.859c0 0.584 0 0.584 0 1.168 0.584 43.811-35.048 79.443-78.859 80.027zM105.73 420.253c42.058 0 75.938-47.9 75.938-106.898s-33.88-106.898-75.938-106.898-75.938 47.9-75.938 106.898 33.88 106.898 75.938 106.898zM105.73 449.46c-58.998 0-105.145-59.582-105.145-136.105s46.147-136.105 105.145-136.105 105.145 59.582 105.145 136.105-45.563 136.105-105.145 136.105zM95.215 374.69c18.108 0 32.712-27.455 32.712-61.335s-15.188-61.335-32.712-61.335-32.712 27.455-32.712 61.335 14.604 61.335 32.712 61.335zM95.215 392.214c-28.623 0-50.236-33.88-50.236-78.859s21.613-78.859 50.236-78.859 50.236 33.88 50.236 78.859-21.613 78.859-50.236 78.859zM334.129 438.946c0 0 0 0 0 0h-100.472c-35.048 0-70.097 3.505-104.561 10.515l-45.563 9.346c-4.673 1.168-7.594 5.841-7.010 10.515 1.168 4.673 5.841 7.594 10.515 7.010l45.563-9.346c33.296-7.010 67.176-10.515 100.472-10.515h99.888c0 0 0 0 0 0 29.207 0 58.414 6.426 84.116 19.277 4.089 2.337 9.346 0 11.683-4.089s0-9.346-4.089-11.683c-27.455-14.019-58.998-21.029-90.542-21.029zM296.744 410.907c-4.673 0-8.762 4.089-8.762 8.762v28.039c0 4.673 4.089 8.762 8.762 8.762s8.762-4.089 8.762-8.762v-28.039c0-4.673-4.089-8.762-8.762-8.762zM389.622 419.669c-4.673 0-8.762 4.089-8.762 8.762v26.871c0 4.673 4.089 8.762 8.762 8.762s8.762-4.089 8.762-8.762v-26.871c0-4.673-4.089-8.762-8.762-8.762zM495.352 267.792h-154.797c-2.921 0-5.841 1.752-7.594 4.673s-1.752 5.841 0 8.762l29.791 51.989c1.752 2.921 4.673 4.673 7.594 4.673h125.59c4.673 0 8.762-4.089 8.762-8.762s-4.089-8.762-8.762-8.762h-120.917l-19.861-34.464h140.194c4.673 0 8.762-4.089 8.762-8.762s-3.505-9.346-8.762-9.346zM430.512 209.962c-29.207 0-55.493 18.108-73.018 49.068-4.089 7.010-1.168 15.772 5.841 19.861s15.772 1.168 19.861-5.841c11.683-21.613 29.207-33.88 47.315-33.88s35.633 12.267 47.315 33.88c4.089 7.010 12.851 9.346 19.861 5.841 7.010-4.089 9.346-12.851 5.841-19.861-17.524-31.544-43.811-49.068-73.018-49.068zM340.554 267.792c-0.584 0-0.584 0-1.168 0l-143.115 17.524c-4.673 0.584-8.178 4.673-7.594 9.93 0.584 4.673 4.673 8.178 9.93 7.594l143.115-17.524c4.673-0.584 8.178-4.673 7.594-9.93-0.584-4.089-4.673-7.594-8.762-7.594zM234.825 381.7h-53.157c-4.673 0-8.762 4.089-8.762 8.762s4.089 8.762 8.762 8.762h44.395v20.445c0 4.673 4.089 8.762 8.762 8.762h154.797c0.584 0 0.584 0 1.168 0l119.165-14.604c4.673-0.584 8.178-4.673 7.594-9.93-0.584-4.673-4.673-8.178-9.93-7.594l-118.581 14.604h-145.451v-20.445c0-4.673-4.089-8.762-8.762-8.762zM467.313 402.145c-3.505 0-7.594 1.168-10.515 4.089-8.762 8.762-20.445 13.435-32.712 14.019-6.426 0-12.851-1.752-18.693-4.673-7.010-3.505-15.772-1.168-19.861 6.426-3.505 7.010-1.168 15.772 6.426 19.861 9.93 5.257 21.029 8.178 32.712 8.178 20.445-0.584 39.137-8.178 53.157-22.782 5.841-5.841 5.841-15.188 0-20.445-3.505-3.505-7.010-4.673-10.515-4.673zM189.846 381.7c-4.673 0-8.762 4.089-8.762 8.762v57.83c0 4.673 4.089 8.762 8.762 8.762s8.762-4.089 8.762-8.762v-57.83c0-4.673-4.089-8.762-8.762-8.762zM230.152 445.371c-4.673 0-8.762 4.089-8.762 8.762v26.871c0 4.673 4.089 8.762 8.762 8.762s8.762-4.089 8.762-8.762v-26.871c0-4.673-4.089-8.762-8.762-8.762zM289.734 445.371c-4.673 0-8.762 4.089-8.762 8.762v26.871c0 4.673 4.089 8.762 8.762 8.762s8.762-4.089 8.762-8.762v-26.871c0-4.673-4.089-8.762-8.762-8.762z" />
            <glyph unicode="&#xe934;" glyph-name="discount-02" d="M892.437 744.383c22.658 0 40.931-18.273 40.931-40.931 0-8.040-2.193-15.349-6.578-21.927 35.814-11.695 59.934-43.854 59.934-81.862v-310.635c0-36.545-22.658-68.705-57.011-81.131 2.193-5.116 2.924-10.233 2.924-15.349 0-22.658-18.273-40.931-40.931-40.931h-745.525c-22.658 0-40.931 18.273-40.931 40.931 0 3.655 0.731 8.040 1.462 11.695-40.931 7.309-71.629 43.123-71.629 84.785v310.635c0 43.123 32.16 78.938 74.552 84.785-2.924 5.847-4.385 11.695-4.385 18.273 0 22.658 18.273 40.931 40.931 40.931l746.256 0.731zM892.437 780.928h-745.525c-40.2 0-73.822-30.698-77.476-70.898-41.662-20.465-69.436-62.858-69.436-110.367v-310.635c0-47.509 27.774-91.363 70.898-111.098 7.309-36.545 39.469-62.858 76.014-62.858h745.525c40.931 0 74.552 31.429 77.476 72.36 33.622 22.658 54.087 60.665 54.087 101.596v310.635c0 40.931-20.465 78.938-54.087 101.596v2.193c0.731 43.123-34.353 77.476-77.476 77.476v0zM464.126 610.627c13.887 0 27.774-5.116 38.738-13.887 16.080-11.695 10.964-37.276 4.385-51.894-10.964-24.12-26.313-45.316-45.316-64.32-10.964-12.425-26.313-19.734-43.123-20.465-10.233 0-19.734 2.924-28.505 8.771-13.156 8.771-20.465 24.12-17.542 39.469 2.924 37.276 23.389 70.898 54.818 90.632 10.964 7.309 23.389 11.695 36.545 11.695zM421.733 492.22c24.12 20.465 45.316 40.931 58.473 68.705 1.462 3.655 4.385 8.040 2.193 11.695-0.731 0-1.462 0.731-2.193 0.731-17.542 0.731-58.473-57.011-58.473-81.131zM616.885 609.165c8.040-0.731 15.349-4.385 19.734-10.964 3.655-4.385 5.116-10.964 2.193-16.811-5.847-11.695-11.695-23.389-19.004-34.353l-82.592-107.443c-30.698-39.469-60.665-80.4-92.094-119.869-15.349-20.465-21.196-21.927-28.505-23.389-13.156 3.655-36.545 9.502-26.313 25.582 5.847 11.695 13.156 23.389 20.465 34.353 41.662 65.051 86.978 127.909 136.68 187.112 16.811 20.465 35.084 39.469 54.087 59.203 3.655 3.655 9.502 6.578 15.349 6.578zM605.921 451.289c21.196 0 47.509-24.12 45.316-41.662-2.924-35.814-15.349-68.705-43.123-90.632-10.233-8.771-23.389-13.887-36.545-13.887-10.233 0-20.465 2.924-29.967 8.040-20.465 9.502-31.429 32.891-25.582 54.818 7.309 27.044 23.389 51.894 45.316 70.167 11.695 10.233 21.927 8.771 34.353 11.695 3.655 0.731 6.578 1.462 10.233 1.462zM569.376 332.882l5.847 2.924c22.658 18.273 36.545 44.585 39.469 73.091 0 4.385-0.731 8.771-1.462 13.156-20.465-16.811-32.891-45.316-41.662-71.629-1.462-5.847-2.193-11.695-2.193-17.542zM464.126 647.172c-19.734 0-38.738-5.847-54.818-16.811v0c-40.2-26.313-66.512-68.705-71.629-116.945-4.385-29.236 8.771-59.203 34.353-75.283 12.425-8.040 26.313-13.156 40.931-14.618-10.964-15.349-21.196-31.429-31.429-48.24-8.040-12.425-15.349-24.851-21.196-35.814-8.040-12.425-9.502-28.505-4.385-42.393 9.502-24.851 36.545-32.16 51.163-36.545l1.462-0.731c2.924-0.731 6.578-1.462 9.502-1.462 1.462 0 3.655 0 5.116 0.731 21.927 2.924 35.814 15.349 51.894 37.276l13.887 18.273c8.771-15.349 21.927-27.774 38.007-35.814 13.887-7.309 29.967-10.964 46.047-11.695 21.927 0 43.123 8.040 59.934 22.658 32.891 26.313 52.625 66.512 56.28 115.483 1.462 18.273-5.116 35.814-16.811 49.702-13.156 15.349-31.429 26.313-51.163 30.698l29.967 38.738 0.731 1.462c6.578 9.502 11.695 19.004 16.811 29.236 1.462 2.924 2.924 5.847 4.385 8.771l0.731 1.462c8.040 17.542 5.847 38.738-6.578 54.087-10.964 16.080-29.236 25.582-48.24 25.582v0c-16.080 0-32.16-6.578-43.123-18.273-9.502-9.502-19.004-19.734-29.236-30.698-3.655 11.695-10.964 21.196-21.196 28.505-18.273 14.618-40.2 22.658-61.396 22.658v0zM282.861 579.198c-1.462 0-2.924 0-4.385 0.731l-162.992 76.014c-5.847 2.193-8.040 8.771-5.116 14.618 2.193 5.847 8.771 8.040 14.618 5.116l162.992-75.283c5.847-2.193 8.040-8.771 5.116-14.618-2.193-4.385-5.847-6.578-10.233-6.578zM731.637 579.198c-4.385 0-8.040 2.193-10.233 5.847-2.924 5.116 0 11.695 5.116 14.618l156.414 75.283c5.116 2.924 11.695 0 14.618-5.116s0-11.695-5.116-14.618l-156.414-75.283c-0.731 0-2.193-0.731-4.385-0.731zM122.792 205.704c-4.385 0-8.040 2.193-9.502 5.847-2.924 5.116-0.731 11.695 5.116 14.618l159.338 80.4c5.116 2.924 11.695 0.731 14.618-5.116 2.924-5.116 0.731-11.695-5.116-14.618l-159.338-79.669c-2.193-0.731-3.655-1.462-5.116-1.462zM888.782 205.704c-1.462 0-3.655 0.731-5.116 1.462l-156.414 79.669c-5.116 2.924-7.309 9.502-5.116 14.618 2.924 5.116 9.502 7.309 14.618 5.116l156.414-79.669c5.116-2.924 7.309-9.502 5.116-14.618-2.193-4.385-5.847-6.578-9.502-6.578z" />
            </font>
</defs>
</svg>
